<?xml version="1.0" standalone="no"?>
<!DOCTYPE svg PUBLIC "-//W3C//DTD SVG 1.1//EN" "http://www.w3.org/Graphics/SVG/1.1/DTD/svg11.dtd" >
<svg xmlns="http://www.w3.org/2000/svg">
<defs>
  <font id="avasta" horiz-adv-x="256">
    <font-face font-family="avasta"
      units-per-em="256" ascent="256"
      descent="0" />
    <missing-glyph horiz-adv-x="0" />
    <glyph glyph-name="cloud-download-95"
      unicode="&#xEA02;"
      horiz-adv-x="256" d="M109.5 211.357C95.596 208.417 81.266 200.77 69.843 190.194C55.357 176.783 47.221 161.192 43.572 139.855C43.027 136.666 42.287 135.886 37.668 133.626C28.586 129.183 20.618 121.052 15.783 111.294C11.784 103.223 11.519 102.153 11.171 92.616C10.865 84.254 11.171 81.403 12.937 76.171C18.033 61.08 28.973 50.062 43.832 45.057C49.004 43.314 52.433 43 66.268 43C77.637 43 82.965 43.365 83.8 44.2C85.611 46.011 85.267 50.789 83.25 51.848C82.288 52.353 74.75 52.99 66.5 53.263C57.064 53.576 49.72 54.33 46.701 55.297C36.92 58.429 26.324 69.2 23.024 79.364C20.907 85.886 21.356 96.93 24.03 104.08C27.361 112.987 36.15 121.863 44.734 124.987C48.163 126.235 51.465 127.855 52.072 128.587C52.68 129.319 53.587 133.199 54.088 137.209C57.87 167.487 78.882 191.721 108.701 200.196C118.73 203.046 136.242 203.271 146 200.676C175.999 192.695 197.67 168.259 201.932 137.605C202.459 133.813 203.318 130.282 203.842 129.758C204.365 129.235 208.471 128.169 212.965 127.389C217.46 126.609 222.882 125.081 225.013 123.993C230.756 121.063 238.927 112.382 241.892 106.06C244.158 101.229 244.5 99.189 244.5 90.5C244.5 81.644 244.189 79.867 241.782 74.967C240.288 71.923 236.913 67.269 234.282 64.624C225.268 55.558 216.857 53.021 195.773 53.008C184.372 53 184.001 52.931 182.408 50.5C180.891 48.184 180.891 47.816 182.408 45.5C184.041 43.007 184.091 43 199.918 43C212.869 43 216.959 43.361 222.145 44.964C238.183 49.921 250.699 63.138 254.459 79.087C258.513 96.286 254.024 112.161 241.593 124.593C234.569 131.616 227.365 135.643 218.643 137.422L212.589 138.657L211.386 145.079C206.157 172.999 184.994 197.869 157.879 207.956C144.509 212.93 123.819 214.384 109.5 211.357M129.571 147.429C128.199 146.056 128 141.149 128 108.73L128 71.602L115.661 83.801C108.132 91.244 102.54 96 101.316 96C98.405 96 95.644 92.554 96.34 89.79C97.127 86.666 131.128 53 133.496 53C135.626 53 167.36 83.984 169.609 88.259C171.415 91.692 170.097 94.686 166.37 95.622C164.089 96.194 162.39 94.863 151.399 83.899L139 71.53L139 108.042C139 139.471 138.783 144.864 137.443 146.777C135.628 149.37 131.827 149.684 129.571 147.429" />
    <glyph glyph-name="home-minimal"
      unicode="&#xEA03;"
      horiz-adv-x="256" d="M130 233.326C121.559 227.418 22.913 147.705 22.052 146.098C21.345 144.776 21 121.251 21 74.288C21 12.693 21.184 4.183 22.557 2.223L24.113 0L64 0L103.887 0L105.443 2.223C106.781 4.132 107 9.412 107 39.723L107 75L133.5 75L160 75L160 39.155C160 5.699 160.122 3.2 161.829 1.655C163.464 0.175 167.753 0 202.394 0C227.185 0 241.828 0.373 243.066 1.035C244.951 2.044 245 3.914 245 74.466L245 146.863L190.309 190.575C160.229 214.616 134.917 234.464 134.059 234.681C133.202 234.898 131.375 234.288 130 233.326M184.5 181.68L234.5 141.488L234.757 76.244L235.014 11L203.007 11L171 11L171 45.777C171 75.635 170.78 80.869 169.443 82.777L167.887 85L133.515 85C103.601 85 98.939 84.796 97.571 83.429C96.202 82.059 96 77.303 96 46.429L96 11L64 11L32 11L32.021 76.25L32.043 141.5L82.271 181.725C109.897 203.849 132.95 221.932 133.5 221.911C134.05 221.89 157 203.786 184.5 181.68" />
    <glyph glyph-name="single-04"
      unicode="&#xEA04;"
      horiz-adv-x="256" d="M117.5 243.167C99.536 237.752 85.058 224.535 78.295 207.377C75.699 200.791 75.569 199.584 75.209 178.849C74.908 161.485 75.145 155.983 76.407 151.056C79.81 137.772 87.781 126.047 98.948 117.9L105.77 112.922L104.879 108.955C100.972 91.57 91.595 79.65 77.731 74.446C55.44 66.08 46.013 60.847 37.93 52.353C27.976 41.893 23.679 31.826 21.941 14.896C21.05 6.21 21.125 4.458 22.475 2.397L24.046 0L132.589 0C205.498 0 241.766 0.34 243.066 1.035C247.418 3.364 244.589 25.77 238.273 39C231.457 53.277 216.997 64.239 194.258 72.364C179.482 77.643 173.129 82.652 167.274 93.638C163.384 100.936 160.095 113.198 161.869 113.79C162.535 114.012 165.649 116.249 168.79 118.761C180.66 128.256 187.721 139.346 190.591 153C192.978 164.355 192.125 196.014 189.19 205C183.902 221.193 169.888 235.563 153.379 241.72C144.084 245.188 126.548 245.895 117.5 243.167M143.131 233.56C159.875 230.011 174.053 217.142 179.105 200.909C181.875 192.01 181.875 159.99 179.105 151.091C172.249 129.06 149.637 114.856 126.5 118.044C113.076 119.895 98.569 129.528 91.792 141.092C86.503 150.118 85.498 155.783 85.517 176.5C85.532 193.774 85.743 196.083 87.834 201.917C93.672 218.207 106.746 229.907 123.063 233.445C131.397 235.252 135.047 235.273 143.131 233.56M133.5 107.5C139.55 107.5 145.89 107.857 147.59 108.294L150.679 109.088L152.502 102.353C155.254 92.187 160.53 82.532 166.876 76.046C172.903 69.886 178.715 66.487 190.282 62.356C201.106 58.49 214.418 51.329 219.838 46.456C227.542 39.529 233.936 24.972 233.985 14.25L234 11L132.988 11L31.976 11L32.577 15.25C33.726 23.385 36.05 31.321 38.719 36.224C44.419 46.697 57.321 55.496 77.864 62.921C82.464 64.583 88.187 67.091 90.581 68.495C100.848 74.512 109.477 86.753 113.993 101.708L116.169 108.916L119.335 108.208C121.076 107.819 127.45 107.5 133.5 107.5" />
    <glyph glyph-name="users-mm"
      unicode="&#xEA05;"
      horiz-adv-x="256" d="M166.176 222.93C159.873 221.69 151.35 217.522 150.015 215.028C149.087 213.295 149.187 212.364 150.517 210.334C152.458 207.372 154.837 207.488 164.5 211.019C181.291 217.154 200.896 208.896 209.65 192L212.5 186.5L212.5 165.5C212.499 145.853 212.356 144.205 210.281 139.927C207.26 133.698 203.258 128.852 197.142 124.018L192 119.953L192 112.945C192 104.744 193.561 100.389 197.769 96.848C199.442 95.44 209.066 91.002 219.155 86.985C229.245 82.969 239.188 78.845 241.25 77.821L245 75.959L245 53.98L245 32L225.571 32C204.533 32 203 31.625 203 26.485C203 21.517 205.517 21 229.723 21C250.667 21 252.12 21.12 254 23C255.896 24.896 256 26.333 256 50.54C256 74.275 255.856 76.362 253.96 80.079C252.837 82.279 250.475 84.958 248.71 86.032C246.944 87.107 236.275 91.67 225 96.172C213.725 100.674 204.169 104.84 203.765 105.429C203.361 106.018 203.024 108.381 203.015 110.679C203.001 114.483 203.528 115.362 208.882 120.469C220.538 131.587 224 141.821 224 165.161C224 189.846 221.435 197.743 209.58 209.552C197.424 221.66 182.733 226.188 166.176 222.93M78.746 211.914C64.237 208.495 49.435 194.623 45.011 180.299C43.299 174.757 43 170.998 43 155C43 134.163 44.206 127.774 49.795 119C52.753 114.356 61.688 105 63.165 105C64.48 105 64.139 96.562 62.75 94.759C62.063 93.866 51.868 89.293 40.095 84.597C28.323 79.9 17.592 75.032 16.25 73.779C11.296 69.152 11 67.534 11 45.073C11 24.099 11.006 24.042 13.353 22.505C15.429 21.144 24.632 20.994 91.803 21.232C152.657 21.446 168.161 21.761 169.2 22.801C170.185 23.786 170.5 29.243 170.5 45.301C170.5 74.768 172.455 72.196 140.226 85.108C127.257 90.304 119.42 93.99 118.476 95.338C115.466 99.635 116.555 102.753 123.365 109.342C135.029 120.627 138.965 132.147 138.965 155C138.965 177.458 135.176 188.771 124.132 199.281C117.108 205.964 111.207 209.452 103.54 211.448C97.128 213.118 84.833 213.349 78.746 211.914M102 200.777C107.53 199.123 113.488 195.279 117.842 190.555C126.38 181.293 128.351 173.474 127.829 150.937C127.516 137.456 127.182 134.867 125.189 130.5C121.696 122.848 118.292 118.461 112.389 114.004L107 109.935L107 101.902C107 87.82 108.429 86.51 135.846 75.474C147.756 70.68 158.063 66.051 158.75 65.188C159.631 64.081 160 58.952 160 47.809L160 32L90.5 32L21 32L21 47.277C21 59.129 21.331 63.028 22.476 64.662C23.42 66.01 31.257 69.696 44.226 74.892C55.377 79.359 65.941 83.891 67.701 84.963C72.154 87.673 74.244 92.295 74.785 100.624L75.247 107.748L66.771 116.124C55.795 126.97 54.062 131.201 53.304 149C52.362 171.112 55.32 182.373 64.474 191.526C74.104 201.157 88.697 204.754 102 200.777" />
    <glyph glyph-name="webpage"
      unicode="&#xEA06;"
      horiz-adv-x="256" d="M13.089 233.25L10.957 231.5L10.979 122.601C10.996 43.63 11.31 13.332 12.123 12.351C13.054 11.23 33.628 11 133.051 11C240.632 11 253.017 11.16 254.429 12.571C255.838 13.981 256 25.333 256 122.571C256 229.667 255.975 231.025 254 233C252.023 234.977 250.667 235 133.611 235C22.338 235 15.093 234.895 13.089 233.25M245 197.5L245 171L133 171L21 171L21 197.5L21 224L133 224L245 224L245 197.5M43 206.727C39.573 205.023 36.658 198.833 37.493 195.031C39.115 187.649 48.921 184.539 54.85 189.527C64.279 197.461 54.095 212.244 43 206.727M75 206.727C71.573 205.023 68.658 198.833 69.493 195.031C71.115 187.649 80.921 184.539 86.85 189.527C96.279 197.461 86.095 212.244 75 206.727M74.757 90.75L74.5 21.5L47.75 21.234L21 20.967L21 90.484L21 160L48.007 160L75.014 160L74.757 90.75M245 90.494L245 20.988L165.25 21.244L85.5 21.5L85.243 90.75L84.986 160L164.993 160L245 160L245 90.494" />
    <glyph glyph-name="layout-25"
      unicode="&#xEA07;"
      horiz-adv-x="256" d="M13.09 233.25L10.959 231.5L10.979 122.603C10.993 43.55 11.307 13.335 12.122 12.353C13.055 11.229 33.556 11 133.051 11C240.632 11 253.017 11.16 254.429 12.571C255.838 13.981 256 25.333 256 122.571C256 229.667 255.975 231.025 254 233C252.023 234.977 250.667 235 133.611 235C22.338 235 15.093 234.895 13.09 233.25M245 192L245 160L133 160L21 160L21 192L21 224L133 224L245 224L245 192M85 85L85 21L53 21L21 21L21 85L21 149L53 149L85 149L85 85M245 85L245 21L170.5 21L96 21L96 85L96 149L170.5 149L245 149L245 85" />
    <glyph glyph-name="analytics"
      unicode="&#xEA08;"
      horiz-adv-x="256" d="M23 222C21.027 220.027 21 218.667 21 122.955L21 25.909L23.455 23.455C26.43 20.479 27.411 20.411 30 23C31.973 24.973 32 26.333 32 122.845C32 216.366 31.919 220.763 30.171 222.345C27.741 224.544 25.433 224.433 23 222M77.223 169.443L75 167.887L75 95.966L75 24.046L77.5 22.408C79.816 20.891 80.184 20.891 82.5 22.408L85 24.046L85 95.966L85 167.887L82.777 169.443C81.555 170.299 80.305 171 80 171C79.695 171 78.445 170.299 77.223 169.443M183.455 168.545L181 166.091L181 96L181 25.909L183.455 23.455C186.43 20.479 187.411 20.411 190 23C191.962 24.962 192 26.333 192 96C192 165.667 191.962 167.038 190 169C187.411 171.589 186.43 171.521 183.455 168.545M129.571 115.429C128.19 114.047 128 108.485 128 69.429C128 26.333 128.06 24.94 130 23C132.589 20.411 133.57 20.479 136.545 23.455L139 25.909L139 69.232C139 106.824 138.794 112.849 137.443 114.777C135.628 117.37 131.827 117.684 129.571 115.429M236.2 115.8C235.302 114.902 235 103.205 235 69.323L235 24.046L237.5 22.408C239.816 20.891 240.184 20.891 242.5 22.408L245 24.046L245 69.323C245 103.205 244.698 114.902 243.8 115.8C243.14 116.46 241.43 117 240 117C238.57 117 236.86 116.46 236.2 115.8" />
    <glyph glyph-name="chart-pie-36"
      unicode="&#xEA09;"
      horiz-adv-x="256" d="M150.653 242.914C149.171 240.799 149 235.535 149 192C149 149.672 149.2 143.16 150.557 141.223L152.113 139L202.485 139C246.945 139 253.042 139.184 254.429 140.571C258.789 144.932 253.313 173.498 244.953 190C229.335 220.832 196.184 242.667 161.903 244.704C152.643 245.254 152.247 245.191 150.653 242.914M174.183 232.549C202.032 226.647 228.551 203.967 238.838 177.253C241.84 169.458 245 156.272 245 151.542L245 149L202.5 149L160 149L160 191.5L160 234L163.75 233.983C165.813 233.973 170.508 233.328 174.183 232.549M100 201.882C59.782 197.281 26.632 168.871 14.373 128.5C11.855 120.208 11.636 118.124 11.591 102C11.54 83.823 12.216 79.398 17.052 66.229C28.48 35.11 54.93 11.682 88.567 2.885C101.389 -0.468 122.611 -0.468 135.433 2.885C155.052 8.016 171.003 17.123 184.075 30.657C201.799 49.007 211.185 69.671 212.661 93.594C213.266 103.406 213.218 103.734 210.919 105.344C208.802 106.827 203.767 107 162.777 107L117 107L117 153.443L117 199.887L114.777 201.443C112.363 203.134 111.236 203.168 100 201.882M107 144.535C107 99.62 107.065 98.036 108.934 97.035C110.186 96.365 126.937 96 156.434 96L202 96L201.993 92.25C201.981 85.965 198.182 72.183 194.002 63.263C170.514 13.14 109.219 -4.429 62.377 25.536C54.835 30.36 43.996 40.797 38.367 48.656C21.564 72.117 17.022 104.001 26.578 131.404C33.064 150.001 46.152 166.673 62.628 177.325C74.645 185.095 91.13 190.834 101.75 190.945L107 191L107 144.535" />
    <glyph glyph-name="chart-bar-33"
      unicode="&#xEA0A;"
      horiz-adv-x="256" d="M161.571 243.429C160.707 242.564 160 241.021 160 240C160 235.379 161.823 235 184.071 235C195.582 235 205 234.66 205 234.245C205 233.097 134.637 163 133.485 163C132.932 163 123.935 171.579 113.49 182.064C103.046 192.549 93.717 201.563 92.759 202.094C91.551 202.765 90.174 202.615 88.259 201.603C83.416 199.045 32 146.655 32 144.279C32 141.522 34.546 139 37.329 139C38.852 139 47.087 146.577 64.5 164C78.242 177.75 89.943 189 90.502 189C91.062 189 100.065 180.421 110.51 169.936C120.954 159.451 130.287 150.435 131.25 149.901C132.42 149.252 133.746 149.307 135.25 150.07C136.487 150.697 154.488 168.148 175.25 188.85L213 226.49L213 206.2C213 185.99 213.01 185.899 215.455 183.455C218.43 180.479 219.411 180.411 222 183C223.906 184.906 224 186.333 224 213.429C224 237.939 223.783 242.074 222.429 243.429C221.073 244.785 216.9 245 192 245C167.1 245 162.927 244.785 161.571 243.429M204.75 147.92C203.109 146.964 203 142.397 203 74.485C203 3.914 203.049 2.044 204.934 1.035C206.106 0.408 215.899 0 229.779 0C250.705 0 252.833 0.158 254.345 1.829C255.852 3.494 256 10.001 256 74.757C256 138.06 255.828 146.029 254.429 147.429C253.089 148.769 249.444 148.996 229.679 148.97C215.803 148.951 205.798 148.53 204.75 147.92M245 75L245 11L229 11L213 11L213 75L213 139L229 139L245 139L245 75M109.223 105.443L107 103.887L107 52.978C107 3.671 107.061 2.038 108.934 1.035C110.106 0.408 119.899 0 133.779 0C154.705 0 156.833 0.158 158.345 1.829C159.838 3.479 160 8.512 160 53.329C160 101.667 159.946 103.054 158 105C156.12 106.88 154.667 107 133.723 107C115.178 107 111.073 106.739 109.223 105.443M149 53.5L149 11L133 11L117 11L117 53.5L117 96L133 96L149 96L149 53.5M12.571 62.429C11.215 61.073 11 56.9 11 32C11 7.1 11.215 2.927 12.571 1.571C13.91 0.233 17.592 0 37.416 0C58.694 0 60.832 0.157 62.345 1.829C63.804 3.44 64 7.042 64 32.174C64 58.53 63.861 60.815 62.171 62.345C60.581 63.784 57.334 64 37.243 64C17.576 64 13.909 63.766 12.571 62.429M53 32L53 11L37 11L21 11L21 32L21 53L37 53L53 53L53 32" />
    <glyph glyph-name="single-copy-06"
      unicode="&#xEA0B;"
      horiz-adv-x="256" d="M76.2 243.8C74.653 242.253 74.653 237.747 76.2 236.2C77.105 235.295 91.117 235 133.129 235C182.458 235 189.038 235.18 190.429 236.571C191.293 237.436 192 238.979 192 240C192 241.021 191.293 242.564 190.429 243.429C189.038 244.82 182.458 245 133.129 245C91.117 245 77.105 244.705 76.2 243.8M34 201C32.027 199.027 32 197.667 32 101.155C32 7.634 32.081 3.237 33.829 1.655C35.504 0.139 43.879 0 133.772 0L231.887 0L233.443 2.223C234.826 4.197 235 15.254 235 101.268L235 198.091L232.545 200.545L230.091 203L133.045 203C37.333 203 35.973 202.973 34 201M224 101.5L224 11L133.5 11L43 11L43 101.5L43 192L133.5 192L224 192L224 101.5" />
    <glyph glyph-name="home"
      unicode="&#xEA0C;"
      horiz-adv-x="256" d="M127.059 230.952C116.205 222.373 16.395 140.666 13.75 138.195C12.238 136.782 11 134.655 11 133.468C11 131.008 13.885 128 16.245 128C17.119 128 43.408 148.959 74.667 174.576C105.925 200.192 132.016 221.373 132.648 221.643C133.279 221.914 159.678 200.955 191.311 175.068C223.068 149.08 249.692 128 250.759 128C253.229 128 256 131.045 256 133.759C256 135.325 240.688 148.389 195.883 185.054C162.819 212.111 134.999 234.449 134.062 234.694C133.074 234.952 130.129 233.379 127.059 230.952M44.75 115.92C43.116 114.968 43 111.159 43 58.485C43 3.733 43.057 2.04 44.934 1.035C46.225 0.344 75.782 0 133.779 0C216.707 0 220.766 0.084 222.345 1.829C223.843 3.484 224 8.89 224 58.757C224 118.734 224.164 117 218.485 117C213.003 117 213 116.972 213 61.777L213 11L186.5 11L160 11L160 41C160 69.667 159.911 71.089 158 73C156.12 74.88 154.667 75 133.723 75C115.178 75 111.073 74.739 109.223 73.443C107.009 71.893 107 71.769 107 41.443L107 11L80 11L53 11L53 62.965C53 113.317 52.94 114.962 51.066 115.965C48.67 117.247 47.009 117.235 44.75 115.92M149 37.5L149 11L133 11L117 11L117 37.5L117 64L133 64L149 64L149 37.5" />
    <glyph glyph-name="single-content-03"
      unicode="&#xEA0D;"
      horiz-adv-x="256" d="M33.571 243.429C32.16 242.018 32 229.681 32 122.584C32 8.303 32.077 3.241 33.829 1.655C35.504 0.139 43.879 0 133.772 0L231.887 0L233.443 2.223C234.831 4.204 235 17.269 235 122.5C235 227.731 234.831 240.796 233.443 242.777L231.887 245L133.515 245C45.419 245 34.979 244.836 33.571 243.429M224 123L224 11L133.5 11L43 11L43 123L43 235L133.5 235L224 235L224 123M76.2 179.8C74.653 178.253 74.653 173.747 76.2 172.2C77.105 171.295 91.117 171 133.129 171C182.458 171 189.038 171.18 190.429 172.571C191.293 173.436 192 174.979 192 176C192 177.021 191.293 178.564 190.429 179.429C189.038 180.82 182.458 181 133.129 181C91.117 181 77.105 180.705 76.2 179.8M76.571 126.429C74.316 124.173 74.63 120.372 77.223 118.557C79.168 117.194 86.216 117 133.723 117C186.667 117 188.049 117.049 190 119C192.491 121.491 192.554 124.189 190.171 126.345C188.516 127.843 183.11 128 133.243 128C84.485 128 77.962 127.819 76.571 126.429M77.223 73.443C74.37 71.445 74.2 66.498 76.934 65.035C78.106 64.408 87.899 64 101.779 64C122.705 64 124.833 64.158 126.345 65.829C128.544 68.259 128.433 70.567 126 73C124.12 74.88 122.667 75 101.723 75C83.178 75 79.073 74.739 77.223 73.443" />
    <glyph glyph-name="bell-53"
      unicode="&#xEA0E;"
      horiz-adv-x="256" d="M121 244.307C93.179 239.631 69.85 221.262 59.542 195.916C54.073 182.471 53.76 179.548 52.964 134.5C52.163 89.177 51.892 86.633 45.969 68.814C44.381 64.037 40.588 55.157 37.541 49.081C34.493 43.005 32 37.421 32 36.672C32 35.923 32.823 34.565 33.829 33.655C35.504 32.139 43.881 32 133.806 32L231.954 32L233.569 34.465C235.127 36.843 234.987 37.317 229.568 47.955C226.479 54.018 222.424 63.597 220.558 69.24C214.574 87.334 213.846 94.107 213.014 139.5C212.432 171.285 211.926 181.624 210.766 185.5C206.047 201.256 198.699 213.366 187.6 223.679C175.962 234.491 164.879 240.16 148.736 243.555C142.412 244.886 126.936 245.305 121 244.307M146.5 233.509C166.023 230.04 185.804 215.081 194.778 197C202.082 182.281 202.176 181.566 203.018 134C203.803 89.688 203.896 88.688 208.96 70.641C211.128 62.915 214.906 53.072 218.129 46.75L220.041 43L133.52 43C85.934 43 47 43.162 47 43.359C47 43.557 48.558 47.09 50.461 51.21C54.875 60.764 58.471 71.792 61.126 83.923C62.988 92.43 63.302 98.247 63.938 136C64.617 176.346 64.768 178.855 66.915 185.5C70.325 196.053 75.445 204.441 83.841 213.229C100.821 231.002 122.011 237.86 146.5 233.509M105.021 11.959C106.155 9.736 108.864 6.136 111.041 3.959L115 0L133.333 0L151.667 0L155.431 3.75C158.643 6.949 163 13.69 163 15.46C163 15.757 149.491 16 132.98 16L102.959 16L105.021 11.959" />
    <glyph glyph-name="email-84"
      unicode="&#xEA0F;"
      horiz-adv-x="256" d="M27.34 222.577C21.369 220.693 17.404 217.544 14.254 212.185L11.5 207.5L11.227 124.576C10.926 32.851 10.744 35.731 17.276 29.008C19.049 27.183 22.525 24.747 25 23.595C29.476 21.511 30.039 21.5 132.5 21.5C216.137 21.5 236.343 21.754 239.983 22.851C242.712 23.674 246.092 25.829 248.622 28.359C256.242 35.979 256 32.866 256 123.144C256 200.912 255.949 203.062 253.967 208.359C251.677 214.479 248.397 218.199 242.513 221.351L238.5 223.5L135 223.695C51.915 223.851 30.679 223.631 27.34 222.577M234.833 212.12C234.021 209.977 133.791 119.869 132.709 120.31C131.674 120.732 40.011 203.731 33.023 210.574L30.545 213L132.856 213C191.328 213 235.024 212.623 234.833 212.12M76.692 156.25C115.818 120.632 130.976 107.419 132.964 107.198C135.314 106.938 143.016 113.561 189.562 155.871C219.195 182.807 243.791 204.629 244.22 204.364C244.649 204.099 245 167.3 245 122.589L245 41.296L242.715 37.898C241.41 35.956 238.945 33.988 236.965 33.306C234.375 32.414 208.196 32.099 133.27 32.056C22.489 31.994 27.419 31.715 23.448 38.279C21.569 41.386 21.489 44.242 21.197 119C20.92 189.879 21.173 205 22.632 205C22.912 205 47.239 183.062 76.692 156.25" />
    <glyph glyph-name="send"
      unicode="&#xEA10;"
      horiz-adv-x="256" d="M131.083 191.6C51.543 159.686 23.3 147.935 22.259 146.322C21.177 144.648 21.111 143.661 21.972 142.053C22.588 140.902 34.771 131.188 49.046 120.466L75 100.971L75 62.508L75 24.046L77.433 22.452C79.266 21.251 80.349 21.117 81.825 21.906C82.903 22.483 89.556 29.828 96.61 38.228C103.664 46.627 111.971 56.471 115.069 60.102L120.701 66.704L157.952 38.796C197.645 9.057 198.844 8.378 201.713 14C203.018 16.559 245.002 225.738 245.001 229.679C245 232.333 242.463 235.054 240.179 234.85C239.255 234.768 190.162 215.305 131.083 191.6M212.925 121.101C202.536 69.181 193.844 26.511 193.61 26.277C193.02 25.687 91.5 101.932 91.5 102.964C91.5 103.696 231.252 216.064 231.657 215.658C231.744 215.571 223.314 173.02 212.925 121.101M207.45 210.135C203.923 206.924 82.124 110 81.616 110C80.579 110 37.913 142.246 38.359 142.692C38.724 143.057 206.853 210.685 207.95 210.908C208.197 210.959 207.972 210.611 207.45 210.135M98.854 83.109L112.05 73.219L98.996 57.609C91.817 49.024 85.731 42 85.471 42C85.212 42 85 53.475 85 67.5C85 81.525 85.148 93 85.329 93C85.51 93 91.596 88.549 98.854 83.109" />
    <glyph glyph-name="at-sign"
      unicode="&#xEA11;"
      horiz-adv-x="256" d="M116 243.092C86.935 237.471 66.346 227.339 49.901 210.566C39.714 200.175 34.713 193.015 27.502 178.5C16.27 155.889 12.079 139.651 11.282 115.655C10.682 97.585 11.681 89.316 16.191 75C23.923 50.457 39.953 29.717 61.034 16.98C85.931 1.936 122.496 -3.382 160.463 2.518C177.104 5.104 196.507 10.621 198.169 13.239C199.689 15.633 199.001 18.953 196.669 20.481C194.557 21.865 193.83 21.834 188.919 20.145C172.427 14.475 150.083 11.043 129.5 11.02C84.683 10.969 53.146 27.093 34.155 59.766C27.066 71.964 23.431 84.147 22.002 100.5C18.211 143.896 39.638 193.736 71 214.469C103.92 236.232 150.168 240.638 187.536 225.57C216.662 213.825 236.387 190.577 243.529 159.575C245.558 150.771 245.559 130.961 243.532 117.699C239.175 89.199 227.238 74.775 208.084 74.867C194.927 74.93 187.038 82.373 183.036 98.5C181.426 104.989 181.657 125.575 183.571 146.281C186.33 176.123 186.382 177.438 184.854 178.706C183.05 180.203 169.501 183.685 160.5 184.965C130.074 189.291 104.856 178.99 90.814 156.5C86.93 150.281 82.926 139.395 80.887 129.513C75.026 101.119 84.133 78.487 105.504 68.338C111.89 65.305 114.447 64.666 121.904 64.241C132.751 63.623 138.78 64.91 149.954 70.23C156.752 73.466 159.95 75.815 166.278 82.22C170.606 86.601 174.26 90.031 174.396 89.843C174.533 89.654 175.44 87.355 176.412 84.733C178.839 78.183 186.711 69.828 193.23 66.882C197.655 64.882 200.104 64.5 208.5 64.503C217.676 64.505 219.058 64.769 225.275 67.712C241.741 75.505 251.678 94.008 255.071 123.191C256.704 137.241 255.797 156.294 253.008 166.5C248.26 183.879 235.944 204.528 223.735 215.58C209.865 228.137 190.391 237.714 169 242.498C157.309 245.113 128.138 245.44 116 243.092M168.667 172.781C171.509 172.076 174.092 171.242 174.406 170.927C174.72 170.613 174.305 164.088 173.483 156.428C172.66 148.768 171.701 134.625 171.352 125C170.741 108.198 170.597 107.262 167.734 101.534C161.338 88.734 145.559 77.287 130.835 74.765C125.346 73.824 123.168 73.918 117.398 75.342C105.111 78.374 96.925 85.631 92.404 97.5C89.869 104.155 89.805 122.584 92.284 132C97.891 153.302 112.27 168.81 130.773 173.512C137.599 175.247 160.516 174.805 168.667 172.781" />
    <glyph glyph-name="attach-87"
      unicode="&#xEA12;"
      horiz-adv-x="256" d="M151.691 234.499C138.69 230.925 138.583 230.833 85.4 177.624L35.3 127.5L30.673 118C25.126 106.611 22.994 97.195 23.017 84.185C23.055 62.955 29.801 46.225 44.096 31.912C58.053 17.935 72.607 11.516 93.018 10.334C109.686 9.369 124.704 13.192 138 21.786C141.189 23.847 164.821 46.581 194.25 75.898C246.614 128.063 247.509 129.091 243.8 132.8C240.154 136.446 238.985 135.435 187.022 83.672C157.078 53.844 134.367 32.014 131.264 30.077C115.215 20.061 89.89 17.992 72.5 25.275C55.376 32.446 42.005 46.937 36.379 64.422C33.113 74.57 32.7 90.695 35.441 101C39.586 116.582 40.165 117.283 91.431 168.797C117.319 194.81 140.525 217.37 143 218.931C150.537 223.682 156.913 225.234 167.294 224.845C179.116 224.401 187.026 220.93 195.478 212.478C208.538 199.419 211.832 181.129 204.145 164.354C201.204 157.935 198.323 154.843 158.752 115.636C130.988 88.126 115.128 73.132 112.5 71.908C104.756 68.3 95.491 69.86 89.764 75.738C83.342 82.328 81.173 91.832 84.389 99.282C85.166 101.08 100.421 117.062 118.96 135.5C137.21 153.65 152.814 169.772 153.636 171.326C154.972 173.853 154.962 174.409 153.542 176.576C149.86 182.196 149.01 181.537 111.916 144.257C72.597 104.741 72.49 104.598 72.515 91.5C72.526 85.461 73.056 82.354 74.676 78.824C79.258 68.841 89.641 60.937 100.113 59.463C106.146 58.614 115.843 61.1 121.313 64.898C123.616 66.496 144.493 86.636 167.706 109.652C213.211 154.772 213.81 155.493 217.511 169.703C224.701 197.306 206.658 227.124 178.297 234.511C171.38 236.312 158.266 236.307 151.691 234.499" />
    <glyph glyph-name="edit-72"
      unicode="&#xEA13;"
      horiz-adv-x="256" d="M114.254 153.75C69.552 109.062 32.718 71.682 32.4 70.682C32.082 69.682 29.425 56.857 26.494 42.182C21.704 18.19 21.312 15.273 22.607 13.25C23.407 11.999 25.055 11 26.318 11C27.568 11 40.667 13.423 55.427 16.384L82.263 21.767L163.631 103.131C227.16 166.656 245 185.032 245 186.945C245 188.796 239.813 194.612 223.75 210.772C204.802 229.835 198.953 235 196.314 235C195.882 235 158.955 198.437 114.254 153.75M215.504 203.996L232.485 186.992L214.746 169.254L197.008 151.515L180.004 168.496C170.652 177.836 163 185.928 163 186.478C163 187.8 196.179 221 197.5 221C198.062 221 206.164 213.348 215.504 203.996M133.223 87.723L76.954 31.447L55.793 27.241C44.154 24.928 34.423 23.244 34.167 23.5C33.912 23.755 35.6 33.535 37.919 45.232L42.135 66.5L98.314 122.75L154.493 179L171.993 161.5L189.493 144L133.223 87.723" />
    <glyph glyph-name="tail-right"
      unicode="&#xEA14;"
      horiz-adv-x="256" d="M162 201C160.9 199.9 160 198.215 160 197.255C160 196.296 175.185 180.321 193.744 161.755L227.489 128L126.244 128C26.333 128 24.974 127.974 23 126C20.411 123.411 20.479 122.43 23.455 119.455L25.909 117L126.185 117L226.46 117L193.23 83.715C170.272 60.72 160 49.768 160 48.287C160 45.519 162.544 43 165.338 43C166.896 43 178.944 54.423 206.806 82.318C238.709 114.259 245.951 121.998 245.408 123.568C244.527 126.11 171.298 199.707 167.8 201.565C164.375 203.385 164.386 203.386 162 201" />
    <glyph glyph-name="minimal-right"
      unicode="&#xEA15;"
      horiz-adv-x="256" d="M77.223 233.443C71.814 229.655 71.606 229.902 127 174.5L179 122.493L127 70.5C73.407 16.915 72.512 15.888 76.2 12.2C79.908 8.492 80.795 9.269 137.262 65.771C172.91 101.441 192 121.237 192 122.533C192 123.831 172.753 143.76 136.729 179.762C106.33 210.143 81.005 235 80.451 235C79.898 235 78.445 234.299 77.223 233.443" />
    <glyph glyph-name="tail-left"
      unicode="&#xEA16;"
      horiz-adv-x="256" d="M60.279 163.767C34.709 138.227 21 123.835 21 122.531C21 121.229 34.553 106.975 59.764 81.764C101.034 40.495 101.738 39.932 105.443 45.223C106.299 46.445 107 47.892 107 48.438C107 48.985 91.821 64.635 73.27 83.216L39.539 117L140.047 117C249.609 117 245 116.759 245 122.485C245 128.324 251.133 128 140.698 128L39.539 128L73.27 161.784C91.821 180.365 107 196.136 107 196.83C107 198.467 102.464 203 100.825 203C100.129 203 81.883 185.345 60.279 163.767" />
    <glyph glyph-name="minimal-left"
      unicode="&#xEA17;"
      horiz-adv-x="256" d="M183.5 233.1C181.85 232.06 156.762 207.414 127.75 178.332C86.462 136.945 75 124.917 75 122.975C75 121.03 86.835 108.66 129.753 65.747C168.527 26.978 185.142 11 186.682 11C189.463 11 192 13.528 192 16.299C192 17.813 176.433 34.033 139.758 70.732L87.516 123.009L139.758 175.258C168.861 204.365 192 228.281 192 229.254C192 230.991 188.681 235.003 187.25 234.996C186.838 234.994 185.15 234.141 183.5 233.1" />
    <glyph glyph-name="tail-up"
      unicode="&#xEA18;"
      horiz-adv-x="256" d="M92.264 195.736C70.669 174.141 53 155.895 53 155.19C53 153.539 57.525 149 59.17 149C59.864 149 75.635 164.179 94.216 182.73L128 216.461L128 115.302C128 4.867 127.676 11 133.515 11C139.241 11 139 6.391 139 115.953L139 216.461L172.784 182.73C191.365 164.179 207.015 149 207.562 149C208.108 149 209.555 149.701 210.777 150.557C216.068 154.262 215.505 154.966 174.236 196.236C149.433 221.039 134.761 235 133.5 235C132.238 235 117.395 220.867 92.264 195.736" />
    <glyph glyph-name="minimal-up"
      unicode="&#xEA19;"
      horiz-adv-x="256" d="M77.204 127.75C47.866 98.462 23.19 73.228 22.367 71.674C21.028 69.146 21.037 68.592 22.458 66.424C23.35 65.062 25.02 64 26.27 64C27.872 64 43.078 78.583 80.742 116.242L132.991 168.484L185.268 116.242C215.426 86.104 238.303 64 239.338 64C242.667 64 245 65.973 245 68.789C245 71.047 235.729 80.777 190.247 126.253C147.41 169.085 134.955 181 133.018 181C131.084 181 118.894 169.37 77.204 127.75" />
    <glyph glyph-name="minimal-down"
      unicode="&#xEA1A;"
      horiz-adv-x="256" d="M22.557 178.777C21.701 177.555 21 176.102 21 175.549C21 174.995 45.857 149.67 76.238 119.271C112.693 82.794 132.161 64 133.491 64C134.821 64 154.137 82.633 190.253 118.753C235.659 164.165 245 173.969 245 176.218C245 179.358 241.96 181.465 238.657 180.615C237.471 180.309 213.329 156.873 185.008 128.534L133.516 77.009L81.486 129.005C26.104 184.349 26.327 184.161 22.557 178.777" />
    <glyph glyph-name="tail-down"
      unicode="&#xEA1B;"
      horiz-adv-x="256" d="M130 233C128.026 231.026 128 229.667 128 129.756L128 28.511L94.109 62.391C63.322 93.168 59.981 96.212 57.638 95.624C54.164 94.752 52.577 91.695 54.07 88.75C54.697 87.512 72.148 69.513 92.85 48.75C122.602 18.911 131.021 11 133.025 11C135.028 11 143.629 19.076 174.03 49.503C199.637 75.131 212.602 88.798 212.804 90.377C213.17 93.231 210.663 96 207.713 96C206.232 96 195.28 85.728 172.285 62.77L139 29.54L139 129.815L139 230.091L136.545 232.545C133.57 235.521 132.589 235.589 130 233" />
    <glyph glyph-name="settings-gear-64"
      unicode="&#xEA1C;"
      horiz-adv-x="256" d="M107.999 243.498C107.313 242.673 105.796 234.379 104.626 225.069L102.5 208.142L93.258 203.519C88.175 200.976 81.941 197.311 79.403 195.374L74.79 191.853L59.263 198.427C50.722 202.042 42.964 205 42.022 205C41.081 205 39.6 204.213 38.732 203.25C37.058 201.394 16.833 166.686 15.743 163.799C14.824 161.366 16.906 159.283 30.871 148.665L43.241 139.259L43.289 122.666L43.337 106.072L31.918 97.431C17.478 86.503 16 85.122 16 82.551C16 79.944 37.865 42.062 40.202 40.621C41.504 39.818 43.734 40.342 49.702 42.853C53.991 44.657 61.389 47.736 66.142 49.695L74.784 53.255L81.302 48.604C84.886 46.046 91.154 42.413 95.229 40.53L102.639 37.106L104.774 19.96C105.948 10.53 107.435 2.181 108.077 1.407C109.909 -0.8 156.208 -0.649 158.429 1.571C159.293 2.436 160.001 3.448 160.001 3.821C160.002 4.195 160.901 11.475 162 20C163.099 28.525 163.998 35.974 163.999 36.552C163.999 37.131 166.154 38.379 168.786 39.326C172.672 40.723 184.988 48.127 190.572 52.423C191.365 53.033 197.275 51.056 208.025 46.582C220.103 41.556 224.777 40.041 226.22 40.685C228.509 41.706 251 80.082 251 82.966C251 84.327 246.735 88.203 237.29 95.426L223.581 105.911L223.54 122.601L223.5 139.291L237.25 149.797C246.805 157.098 251 160.911 251 162.296C251 164.201 231.267 199.608 228.176 203.25C227.359 204.212 225.855 205 224.835 205C223.814 205 215.997 202.061 207.463 198.469L191.946 191.937L185.634 196.441C182.163 198.919 175.875 202.583 171.661 204.584C167.448 206.585 163.999 208.51 163.998 208.861C163.987 212.58 159.665 241.758 158.919 243.152C157.998 244.872 156.238 245 133.587 245C113.158 245 109.045 244.759 107.999 243.498M150.002 234.25C150.015 229.255 154.405 201.228 155.301 200.424C155.96 199.833 159.563 198.084 163.306 196.538C170.593 193.529 180.441 187.541 185.785 182.871C187.591 181.292 189.53 180 190.092 180C190.655 180 197.502 182.678 205.308 185.951C213.113 189.223 220.091 192.036 220.814 192.201C222.057 192.484 237.995 166.729 237.955 164.5C237.945 163.95 233.734 160.412 228.597 156.638C223.459 152.863 217.355 148.138 215.031 146.137L210.807 142.498L211.903 136.565C213.261 129.221 213.321 115.967 212.028 109.146C211.493 106.326 211.309 103.358 211.619 102.55C211.929 101.742 217.99 96.675 225.087 91.29C232.184 85.906 237.993 81.164 237.995 80.753C237.998 80.342 234.385 73.759 229.967 66.124L221.933 52.242L206.867 58.621C198.581 62.129 191.249 65 190.575 65C189.901 65 186.04 62.493 181.996 59.429C173.954 53.336 169.916 51.063 161.637 47.966C158.637 46.843 155.683 45.323 155.073 44.588C154.235 43.578 150.008 16.208 150.001 11.75C150.001 11.338 142.584 11 133.519 11C117.238 11 117.032 11.027 116.554 13.25C116.287 14.488 115.331 21.575 114.429 29C113.527 36.425 112.414 43.205 111.957 44.067C111.499 44.93 107.968 46.874 104.109 48.388C96.763 51.27 86.794 57.253 81.215 62.129C79.409 63.708 77.245 65 76.408 65C75.57 65 68.484 62.3 60.661 59C52.837 55.7 45.944 53 45.343 53C44.741 53 40.617 59.299 36.177 66.997L28.105 80.994L41.602 91.247L55.1 101.5L54.356 111C53.44 122.692 53.44 122.373 54.386 134.076L55.161 143.652L41.588 153.97L28.015 164.288L29.883 167.394C30.91 169.102 34.569 175.45 38.013 181.5C41.458 187.55 44.369 192.617 44.482 192.76C44.595 192.904 51.005 190.363 58.726 187.115C77.817 179.084 76.007 179.356 81.634 183.67C88.975 189.297 98.184 194.682 105.429 197.582C109.001 199.012 112.147 200.928 112.422 201.841C112.696 202.753 113.614 209.125 114.461 216C115.309 222.875 116.247 229.962 116.547 231.75L117.091 235L133.545 235C142.595 235 150.001 234.663 150.002 234.25M125.355 158.961C119.547 157.811 112.175 153.864 107.704 149.511C92.652 134.854 92.162 112.432 106.556 97.044C126.794 75.408 163.495 85.879 169.572 115.024C175.109 141.579 152.259 164.285 125.355 158.961M144.5 146.647C158.443 140.14 163.785 123.562 156.344 109.891C143.352 86.019 107.087 95.293 107.032 122.5C106.993 141.738 127.163 154.738 144.5 146.647" />
    <glyph glyph-name="settings"
      unicode="&#xEA1D;"
      horiz-adv-x="256" d="M173.373 243.072C149.823 236.731 131.662 217.848 126.411 194.243C124.926 187.569 124.836 174.594 126.204 164.264C126.43 162.553 124.736 160.497 119 155.521L111.5 149.016L96.127 164.385L80.753 179.755L84.057 189.627C85.874 195.057 87.301 200.373 87.228 201.44C86.975 205.139 54.952 236 51.366 236C49.587 236 17 202.439 17 200.607C17 198.535 48.107 166.418 51.005 165.498C51.878 165.221 57.286 166.576 63.023 168.508L73.455 172.021L88.227 157.273C96.352 149.162 103 142.266 103 141.95C103 141.634 87.138 127.462 67.75 110.457C26.108 73.931 19.781 68.009 16.594 62.571C9.831 51.03 9.143 35.247 14.893 23.566C26.821 -0.662 56.531 -7.329 77.206 9.583C78.694 10.8 100.92 35.355 126.598 64.148C163.69 105.741 173.717 116.437 175.392 116.192C176.551 116.022 182.777 115.637 189.226 115.337C199.445 114.861 201.884 115.074 208.201 116.992C227.133 122.743 241.225 134.737 249.485 152.131C255.687 165.19 257.331 178.052 254.505 191.391C252.67 200.055 250.82 203 247.214 203C245.016 203 241.519 200.039 229.5 188L214.524 172.999L199.276 188.223L184.028 203.448L199.09 218.623C212.303 231.935 214.112 234.149 213.826 236.649C213.564 238.941 212.52 239.989 208.5 241.994C201.622 245.425 184.109 245.962 173.373 243.072M195.233 234.361L198.965 233.744L184.96 220.122C174.152 209.611 170.959 205.922 170.977 203.969C170.995 202.019 175.779 196.677 191.804 180.719C203.995 168.578 213.382 160 214.477 160C215.541 160 222.511 166.114 230.673 174.205L245 188.411L245 179.887C245 147.536 216.592 121.803 185.451 125.945C181.078 126.526 175.639 127.279 173.364 127.617L169.227 128.233L120.976 73.866C94.438 43.965 71.774 18.683 70.612 17.684C62.031 10.306 48.695 8.814 38.2 14.058C34.834 15.74 30.865 18.552 29.38 20.308C19.732 31.714 19.016 48.31 27.676 59.785C29.039 61.591 54.197 84.238 83.582 110.11C112.968 135.982 137.448 157.968 137.983 158.968C138.658 160.229 138.462 162.428 137.346 166.143C135.372 172.712 135.185 185.607 136.957 193C141.986 213.98 160.752 230.837 182.5 233.909C190.612 235.054 190.962 235.067 195.233 234.361M73.184 190.985L70.349 182.5L62.084 179.606L53.82 176.711L41.91 188.59L30 200.469L41.239 211.74L52.479 223.011L64.249 211.24L76.02 199.47L73.184 190.985M216.239 95.334C213.892 94.389 212.841 91.173 214.086 88.75C214.721 87.512 220.757 80.875 227.497 74C234.238 67.125 240.783 59.475 242.042 57C245.459 50.283 245.873 39.295 242.996 31.67C240.01 23.755 232.233 15.982 224.33 13.014C216.541 10.089 205.56 10.447 199 13.839C196.31 15.229 187.033 23.575 175.94 34.583C161.18 49.23 156.834 53 154.713 53C151.294 53 148.384 48.997 149.855 46.317C150.404 45.318 159.323 36.112 169.676 25.861C190.368 5.373 194.047 2.837 205.927 0.875C219.836 -1.422 232.771 2.836 243.083 13.106C256.21 26.18 259.39 44.546 251.508 61.763C249.517 66.113 245.614 70.76 234.751 81.717C221.462 95.12 219.426 96.618 216.239 95.334" />
    <glyph glyph-name="menu-dots"
      unicode="&#xEA1E;"
      horiz-adv-x="256" d="M106.6666666666667 128A21.333333333333332 21.333333333333332 0 0 1 149.3333333333333 128A21.333333333333332 21.333333333333332 0 0 1 106.6666666666667 128M10.6666666666667 128A21.333333333333332 21.333333333333332 0 0 1 53.3333333333333 128A21.333333333333332 21.333333333333332 0 0 1 10.6666666666667 128M202.6666666666667 128A21.333333333333332 21.333333333333332 0 0 1 245.3333333333333 128A21.333333333333332 21.333333333333332 0 0 1 202.6666666666667 128" />
    <glyph glyph-name="menu-left"
      unicode="&#xEA1F;"
      horiz-adv-x="256" d="M13.223 201.443C10.37 199.445 10.2 194.498 12.934 193.035C14.236 192.338 53.723 192 133.779 192C247.708 192 252.759 192.077 254.345 193.829C256.544 196.259 256.433 198.567 254 201C252.023 202.977 250.667 203 133.723 203C28.291 203 15.204 202.831 13.223 201.443M12.571 126.429C10.316 124.173 10.63 120.372 13.223 118.557C15.204 117.169 28.291 117 133.723 117C250.667 117 252.023 117.023 254 119C256.491 121.491 256.554 124.189 254.171 126.345C252.491 127.865 242.663 128 133.243 128C26.303 128 13.982 127.84 12.571 126.429M12.2 51.8C10.653 50.253 10.653 45.747 12.2 44.2C13.107 43.293 28.35 43 74.677 43L135.954 43L137.592 45.5C139.109 47.816 139.109 48.184 137.592 50.5L135.954 53L74.677 53C28.35 53 13.107 52.707 12.2 51.8" />
    <glyph glyph-name="funnel-40"
      unicode="&#xEA20;"
      horiz-adv-x="256" d="M23 233C21.9 231.9 21 230.333 21 229.517C21 228.701 40.35 198.999 64 163.512L107 98.989L107 56.195C107 24.243 107.304 13.096 108.2 12.2C109.066 11.334 116.006 11 133.129 11C153.367 11 157.088 11.231 158.429 12.571C159.808 13.951 160 19.356 160 56.823L160 99.503L202.5 163.248C229.553 203.824 245 227.882 245 229.44C245 235.272 250.487 235 132.777 235C26.333 235 24.975 234.975 23 233M189.754 163.75L149.5 103.5L149.218 62.25L148.936 21L132.968 21L117 21L117 62.251L117 103.503L78.676 161.001C57.597 192.626 39.545 219.737 38.561 221.25L36.77 224L133.389 224L230.008 224L189.754 163.75" />
    <glyph glyph-name="filter"
      unicode="&#xEA21;"
      horiz-adv-x="256" d="M22.557 242.777C21.296 240.978 21 237.323 21 223.554L21 206.554L64 163.511L107 120.469L107 66.935C107 26.63 107.297 13.103 108.2 12.2C108.86 11.54 110.439 11 111.709 11C114.142 11 155.246 31.102 158.25 33.761C159.865 35.191 160 38.595 160 77.909L160 120.509L202.5 163L245 205.491L245 224.21C245 241.694 244.872 242.998 243.066 243.965C241.766 244.66 205.508 245 132.622 245L24.113 245L22.557 242.777M234.783 222.549L235.067 210.598L192.033 167.522L149 124.446L149 82.458L149 40.47L133.492 32.735C124.962 28.481 117.762 25 117.492 25C117.221 25 117 47.6 117 75.223L117 125.446L74.5 167.988L32 210.531L32 222.77L32 235.01L133.25 234.755L234.5 234.5L234.783 222.549" />
    <glyph glyph-name="preferences-circle"
      unicode="&#xEA22;"
      horiz-adv-x="256" d="M66.892 242.694C54.868 237.644 47.295 229.37 44.062 217.75L42.74 213L28.07 213C12.333 213 11 212.61 11 208C11 203.39 12.333 203 28.07 203L42.74 203L44.046 198.25C46.484 189.386 52.212 181.834 60.5 176.558C66.876 172.5 72.137 171 80 171C93.537 171 104.94 177.555 112.185 189.5C116.931 197.325 118.434 209.298 115.812 218.384C112.998 228.134 104.914 237.282 95.046 241.883C87.004 245.632 74.73 245.986 66.892 242.694M91.703 231.731C100.947 227.248 106.176 218.696 106.176 208.061C106.176 199.678 103.586 193.665 97.672 188.323C92.273 183.445 87.601 181.676 79.991 181.629C69.534 181.564 61.248 186.716 56.1 196.485C53.142 202.098 53.145 213.911 56.105 219.515C63.201 232.946 78.424 238.17 91.703 231.731M150.408 210.5C148.891 208.184 148.891 207.816 150.408 205.5L152.046 203L202.452 203C246.941 203 253.042 203.184 254.429 204.571C255.293 205.436 256 206.979 256 208C256 209.021 255.293 210.564 254.429 211.429C253.042 212.816 246.941 213 202.452 213L152.046 213L150.408 210.5M157.355 158.961C144.86 156.487 133.343 145.828 129.713 133.376L128.291 128.5L70.609 128C8.431 127.461 11.054 127.709 11.015 122.372C10.98 117.491 10.507 117.533 71.293 117L128.28 116.5L129.524 112.286C132.375 102.629 140.87 92.714 149.606 88.85C171.644 79.102 196.715 91.729 201.572 115.024C207.109 141.579 184.259 164.285 157.355 158.961M176.5 146.647C190.443 140.14 195.785 123.562 188.344 109.891C175.352 86.019 139.087 95.293 139.032 122.5C138.993 141.738 159.163 154.738 176.5 146.647M236.571 126.429C235.707 125.564 235 123.79 235 122.485C235 118.858 238.557 117 245.5 117C252.388 117 256 118.858 256 122.402C256 126.473 253.067 128 245.243 128C240.122 128 237.705 127.562 236.571 126.429M74.357 73.921C60.398 72.085 47.757 60.952 44.066 47.244L42.923 43L29.184 43C18.368 43 14.972 42.669 13.223 41.443C10.37 39.445 10.2 34.498 12.934 33.035C14.001 32.464 21.094 32 28.752 32L42.635 32L44.312 26.68C47.232 17.417 54.631 8.42 62.954 4.011C72.709 -1.156 87.325 -1.024 97.664 4.325C103.062 7.118 110.94 15.631 113.77 21.73C117.177 29.071 117.952 40.212 115.616 48.25C113.907 54.127 108.73 61.75 103.302 66.382C96.388 72.281 84.81 75.296 74.357 73.921M91.762 61.099C96.724 58.538 102.521 52.416 104.514 47.633C105.433 45.426 106.125 40.976 106.125 37.27C106.125 22.052 95.02 11 79.728 11C69.009 11 60.377 16.608 55.867 26.5C53.562 31.557 53.397 42.616 55.549 47.782C58.37 54.554 66.129 61.185 73.5 63.123C78.049 64.319 87.567 63.264 91.762 61.099M152.762 41.927C149.586 40.076 148.68 37.137 150.452 34.433L152.046 32L202.368 32C249.849 32 252.783 32.103 254.345 33.829C256.544 36.259 256.433 38.567 254 41C252.054 42.946 250.688 42.999 203.25 42.97C172.219 42.95 153.868 42.571 152.762 41.927" />
    <glyph glyph-name="check-2"
      unicode="&#xEA23;"
      horiz-adv-x="256" d="M169.265 123.758L100.995 55.515L64.607 91.893C31.52 124.97 27.984 128.213 25.638 127.624C21.899 126.686 20.583 123.692 22.399 120.259C23.202 118.742 40.667 100.738 61.211 80.25C90.167 51.372 99.117 43 101.034 43C102.973 43 118.752 58.248 174.253 113.753C224.563 164.067 245 185.134 245 186.681C245 189.465 242.472 192 239.696 192C238.168 192 217.502 171.976 169.265 123.758" />
    <glyph glyph-name="cart-simple"
      unicode="&#xEA24;"
      horiz-adv-x="256" d="M13.223 233.443C10.759 231.718 10.155 226.665 12.25 225.309C12.938 224.864 20.23 224.275 28.455 224L43.411 223.5L53.796 145.5C61.53 87.408 64.58 67.053 65.745 65.75C67.21 64.112 72.229 64 144.084 64C208.66 64 221.08 64.223 222.261 65.404C223.658 66.801 245.001 170.807 245 176.215C245 177.875 244.249 179.332 243.066 179.965C241.773 180.657 211.089 181 150.585 181L60.038 181L59.556 183.25C59.29 184.487 57.914 194.5 56.497 205.5C53.23 230.856 53.056 231.802 51.308 233.549C49.112 235.745 16.38 235.655 13.223 233.443M232.951 169.25C232.925 168.287 228.741 146.8 223.653 121.5L214.404 75.5L144.249 75.243L74.093 74.987L73.537 78.243C73.231 80.034 70.498 100.4 67.465 123.5C64.431 146.6 61.7 166.737 61.395 168.25L60.841 171L146.921 171C228.253 171 232.997 170.903 232.951 169.25M61.708 29.967C51.552 24.455 50.52 10.282 59.761 3.233C64.453 -0.346 73.286 -0.662 77.677 2.592C87.425 9.815 87.493 22.137 77.824 29.298C73.893 32.209 66.41 32.52 61.708 29.967M213.001 30.877C204.066 27.314 200.09 15.572 205.25 7.99C209.095 2.34 212.449 0.5 218.901 0.5C226.164 0.5 230.985 3.776 233.53 10.44C238.372 23.117 225.55 35.881 213.001 30.877" />
    <glyph glyph-name="cart-9"
      unicode="&#xEA25;"
      horiz-adv-x="256" d="M12.75 243.92C10.679 242.714 10.403 237.74 12.318 236.151C13.1 235.502 19.509 234.944 28.068 234.779L42.5 234.5L42.736 160C43.001 76.597 42.659 80.579 50.249 72.346C52.796 69.583 56.11 67.354 59.631 66.037C64.957 64.044 66.991 64 153.103 64C211.871 64 241.774 64.344 243.066 65.035C245.8 66.498 245.63 71.445 242.777 73.443C240.807 74.824 230.571 75 152.425 75L64.296 75L60.952 77.253C55.005 81.261 53.5 85.149 53.5 96.5L53.5 106.5L132.133 106.756C194.392 106.959 210.985 107.278 211.823 108.287C212.405 108.988 217.651 128.673 223.481 152.031C229.31 175.389 234.315 195.28 234.602 196.233C234.915 197.273 234.117 198.974 232.608 200.483L230.091 203L141.545 203L53 203L53 222.965C53 241.68 52.879 242.994 51.066 243.965C48.534 245.32 15.086 245.28 12.75 243.92M222 190.99C222 190.435 217.893 173.557 212.874 153.484L203.747 116.987L128.624 117.244L53.5 117.5L53.238 154.75L52.976 192L137.488 192C193.712 192 222 191.662 222 190.99M61.708 29.967C51.552 24.455 50.52 10.282 59.761 3.233C64.453 -0.346 73.286 -0.662 77.677 2.592C87.425 9.815 87.493 22.137 77.824 29.298C73.893 32.209 66.41 32.52 61.708 29.967M213.001 30.877C204.066 27.314 200.09 15.572 205.25 7.99C209.095 2.34 212.449 0.5 218.901 0.5C226.164 0.5 230.985 3.776 233.53 10.44C238.372 23.117 225.55 35.881 213.001 30.877" />
    <glyph glyph-name="card-update"
      unicode="&#xEA26;"
      horiz-adv-x="256" d="M26.5 242.62C23.75 241.31 19.832 238.498 17.793 236.37C10.716 228.983 10.96 232.093 10.987 149.544C11.002 104.685 11.395 74.11 11.983 72.06C14.007 65.003 20.485 58.247 28.5 54.835C30.687 53.904 41.051 53.463 66.727 53.21L101.954 52.863L104.477 55.386C107.523 58.432 107.6 59.4 105 62C103.077 63.923 101.667 64 68.386 64C34.52 64 33.687 64.048 29.837 66.212C27.672 67.428 24.911 70.016 23.701 71.962C21.572 75.384 21.49 76.543 21.198 107.25L20.896 139L137.413 139C251.586 139 253.95 139.039 254.965 140.934C255.629 142.175 256 157.173 256 182.756C256 226.621 255.827 228.115 249.898 235.307C248.223 237.339 244.748 240.239 242.176 241.751L237.5 244.5L134.5 244.75L31.5 245L26.5 242.62M236.03 232.75C238.48 231.512 241.5 228.971 242.742 227.102C244.722 224.123 245 222.429 245 213.352L245 203L133 203L21 203L21.024 210.75C21.055 220.922 22.223 225.567 25.67 229.233C31.285 235.206 25.889 234.918 133.038 234.961L231.576 235L236.03 232.75M245 170.496L245 148.991L133.25 149.246L21.5 149.5L21.23 170.75L20.96 192L132.98 192L245 192L245 170.496M189.5 105.893C175.405 103.867 160.759 92.921 154.407 79.666C150.223 70.934 149.948 66.437 153.5 64.818C156.346 63.521 160.999 65.016 161.001 67.229C161.003 70.272 167.094 80.859 171.114 84.807C173.526 87.176 178.416 90.551 181.979 92.307C187.814 95.183 189.354 95.5 197.479 95.5C205.594 95.5 207.155 95.179 213.021 92.308C216.608 90.553 220.578 88.014 221.845 86.665L224.147 84.215L214.074 76.905C208.533 72.885 204 69.35 204 69.048C204 68.415 247.975 58.61 248.415 59.145C248.576 59.34 249.48 68.05 250.424 78.5C251.368 88.95 252.399 99.238 252.716 101.361L253.291 105.222L244.396 98.806C239.503 95.278 234.93 92.046 234.233 91.625C233.439 91.147 231.328 92.302 228.587 94.715C222.192 100.344 215.51 103.625 206.792 105.416C198.377 107.145 198.234 107.149 189.5 105.893M146 46.922C146 46.308 145.079 36.563 143.953 25.267C142.827 13.971 142.039 4.147 142.203 3.437C142.386 2.643 146.128 4.798 151.922 9.034L161.344 15.922L165.047 12.576C173.289 5.131 186.165 -0.016 196.478 0.015C216.207 0.073 235.363 12.99 241.991 30.705C244.42 37.198 244.008 40.584 240.599 42.137C236.963 43.794 234.568 41.823 232.146 35.182C228.527 25.255 219.011 16.162 208.572 12.655C202.429 10.592 192.946 10.53 186.281 12.509C181.019 14.072 171.897 19.627 171.259 21.658C171.059 22.295 175.441 26.114 180.997 30.146C189.157 36.067 190.754 37.621 189.3 38.227C188.31 38.64 179.175 40.786 169 42.995C158.825 45.204 149.488 47.243 148.25 47.525C146.954 47.821 146 47.565 146 46.922" />
    <glyph glyph-name="basket"
      unicode="&#xEA27;"
      horiz-adv-x="256" d="M97.77 243.627C97.015 242.872 87.251 226.222 76.073 206.627L55.748 171L35.596 171C18.976 171 15.056 170.727 13.223 169.443C10.37 167.445 10.2 162.498 12.934 161.035C14.236 160.338 53.723 160 133.779 160C247.708 160 252.759 160.077 254.345 161.829C256.373 164.07 256.442 166.013 254.583 168.559C253.278 170.346 251.474 170.54 231.864 171L210.564 171.5L190.532 206.642C179.514 225.971 169.863 242.531 169.085 243.443C166.836 246.081 161.747 245.103 160.597 241.814C159.756 239.407 161.662 235.619 178.891 205.458C189.468 186.94 197.942 171.608 197.721 171.387C197.499 171.166 168.274 171.101 132.775 171.243L68.231 171.5L86.68 203.5C96.828 221.1 105.563 236.573 106.092 237.885C108.097 242.86 101.533 247.39 97.77 243.627M33.655 126.171C32.166 124.526 32 119.778 32 78.849C32 28.209 32.045 27.812 38.662 20.082C40.616 17.799 44.079 14.934 46.357 13.716L50.5 11.5L131.423 11.227C222.248 10.92 218.287 10.63 226.04 18.155C228.326 20.373 231.164 24.283 232.348 26.844C234.437 31.365 234.509 32.843 234.796 77.704C235.088 123.123 235.058 123.942 233.046 125.954C230.522 128.478 227.825 128.569 225.684 126.204C224.241 124.609 224.027 119.188 223.779 77.954C223.5 31.552 223.497 31.496 221.243 28.336C220.002 26.596 217.047 24.233 214.677 23.086C210.424 21.027 209.38 21 133.396 21L56.424 21L51.97 23.25C49.52 24.488 46.5 27.029 45.258 28.898L43 32.296L43 78.148C43 122.667 42.942 124.058 41 126C38.509 128.491 35.811 128.554 33.655 126.171M86.557 114.777C85.262 112.929 85 108.843 85 90.5C85 72.157 85.262 68.071 86.557 66.223C88.445 63.527 92.095 63.342 94.345 65.829C95.784 67.419 96 70.666 96 90.757C96 110.424 95.766 114.091 94.429 115.429C92.173 117.684 88.372 117.37 86.557 114.777M129.571 115.429C128.233 114.09 128 110.408 128 90.584C128 69.306 128.157 67.168 129.829 65.655C132.375 63.35 135.6 63.591 137.443 66.223C138.738 68.071 139 72.157 139 90.5C139 108.843 138.738 112.929 137.443 114.777C135.628 117.37 131.827 117.684 129.571 115.429M172.2 115.8C171.332 114.932 171 107.862 171 90.279L171 65.957L173.5 64.818C175.37 63.966 176.63 63.966 178.5 64.818L181 65.957L181 90.279C181 116.281 180.866 117 176 117C174.57 117 172.86 116.46 172.2 115.8" />
    <glyph glyph-name="check-circle-07"
      unicode="&#xEA28;"
      horiz-adv-x="256" d="M110 233.911C78.417 230.416 47.342 211.287 29.419 184.307C23.843 175.914 17.231 161.21 14.441 151C10.93 138.147 10.045 117.677 12.415 104.086C24.612 34.129 97.85 -7.272 163.5 18.678C210.106 37.101 239.142 84.696 234.006 134.25C232.587 147.935 231.516 152.162 228.939 154.25C226.235 156.44 225.755 156.432 222.927 154.142C220.639 152.289 220.637 152.264 222.067 143.392C222.87 138.412 223.446 128.561 223.378 121C223.277 109.907 222.789 105.73 220.64 97.571C209.807 56.449 175.167 26.624 132.833 21.971C116.27 20.151 96.7 23.336 80.65 30.465C65.924 37.005 47.772 52.497 38.651 66.308C16.029 100.564 15.95 144.72 38.451 178.449C67.773 222.403 125.64 236.643 171.972 211.304C178.005 208.005 179.08 207.716 181.391 208.768C185.057 210.439 184.986 215.079 181.25 218.019C176.751 221.559 163.108 227.719 153.876 230.378C139.665 234.471 125.426 235.618 110 233.911M180.01 166.501L122.479 109.002L102.989 128.533C92.27 139.275 82.529 148.313 81.343 148.617C78.033 149.466 75 147.357 75 144.207C75 141.989 79.22 137.266 97.758 118.742C112.22 104.29 121.243 96 122.511 96C125.424 96 245 215.764 245 218.682C245 221.464 242.472 224 239.699 224C238.18 224 220.501 206.97 180.01 166.501" />
    <glyph glyph-name="simple-remove"
      unicode="&#xEA29;"
      horiz-adv-x="256" d="M55.455 200.545C54.105 199.195 53 197.522 53 196.827C53 196.132 69.422 179.118 89.494 159.02L125.987 122.477L90.432 86.988C70.876 67.47 54.422 50.682 53.867 49.683C52.373 46.993 55.285 43 58.741 43C60.951 43 67.933 49.488 97.48 78.994L133.523 114.987L169.506 78.994C206.473 42.016 208.198 40.598 211.8 44.2C215.391 47.791 213.962 49.528 177 86.5L141 122.51L177 158.5C206.767 188.259 213 194.963 213 197.222C213 200.714 209.024 203.636 206.317 202.133C205.318 201.578 188.53 185.124 169.012 165.568L133.523 130.013L96.98 166.506C76.882 186.578 59.868 203 59.173 203C58.478 203 56.805 201.895 55.455 200.545" />
    <glyph glyph-name="circle-remove"
      unicode="&#xEA2A;"
      horiz-adv-x="256" d="M113.422 243.487C99.678 240.97 89.478 237.61 78.171 231.875C36.316 210.646 11 169.407 11 122.455C11 75.379 37.302 33.671 80.5 12.249C113.352 -4.042 153.344 -3.954 186.5 12.482C217.283 27.742 238.773 52.236 249.497 84.286C259.199 113.278 257.772 143.952 245.414 172.058C225.781 216.712 181.58 245.318 132.874 244.892C126.068 244.832 117.315 244.2 113.422 243.487M144.637 233.934C171.031 230.991 193.616 220.184 212.19 201.61C233.685 180.115 244.971 153.027 244.992 122.881C245.024 79.054 220.352 40.41 179.992 21.071C156.249 9.694 123.415 7.856 98.049 16.483C78.407 23.164 60.688 35.201 47.98 50.495C28.342 74.13 19.108 103.856 22.117 133.752C23.548 147.969 26.835 159.165 33.518 172.589C50.376 206.45 83.499 229.662 121 233.894C131.818 235.115 134.015 235.119 144.637 233.934M87.455 168.545C86.105 167.195 85 165.532 85 164.85C85 164.167 94.22 154.35 105.49 143.034L125.979 122.46L106.426 102.98C95.671 92.266 86.419 82.682 85.865 81.683C84.38 79.003 87.286 75 90.717 75C92.854 75 97.409 79.003 113.465 94.989L133.541 114.978L153.511 94.989C173.9 74.581 176.397 72.797 179.8 76.2C183.204 79.604 181.42 82.1 161 102.5L141 122.482L161 142.5C177.184 158.699 181 163.036 181 165.236C181 168.713 177.018 171.632 174.317 170.135C173.318 169.581 163.734 160.329 153.02 149.574L133.54 130.021L112.966 150.51C101.65 161.78 91.833 171 91.15 171C90.468 171 88.805 169.895 87.455 168.545" />
    <glyph glyph-name="alert-circle-exc"
      unicode="&#xEA2B;"
      horiz-adv-x="256" d="M113.422 243.487C99.678 240.97 89.478 237.61 78.171 231.875C36.316 210.646 11 169.407 11 122.455C11 75.379 37.302 33.671 80.5 12.249C113.352 -4.042 153.344 -3.954 186.5 12.482C217.283 27.742 238.773 52.236 249.497 84.286C259.199 113.278 257.772 143.952 245.414 172.058C225.781 216.712 181.58 245.318 132.874 244.892C126.068 244.832 117.315 244.2 113.422 243.487M144.637 233.934C171.031 230.991 193.616 220.184 212.19 201.61C233.685 180.115 244.971 153.027 244.992 122.881C245.024 79.054 220.352 40.41 179.992 21.071C156.249 9.694 123.415 7.856 98.049 16.483C78.407 23.164 60.688 35.201 47.98 50.495C28.342 74.13 19.108 103.856 22.117 133.752C23.548 147.969 26.835 159.165 33.518 172.589C50.376 206.45 83.499 229.662 121 233.894C131.818 235.115 134.015 235.119 144.637 233.934M129.571 179.429C128.205 178.062 128 173.446 128 144C128 107.25 128.037 107 133.515 107C138.754 107 139 108.656 139 144C139 171.846 138.775 176.876 137.443 178.777C135.628 181.37 131.827 181.684 129.571 179.429M128 78.362C124.015 75.54 123.066 73.785 123.032 69.173C122.987 63.049 127.049 58.987 133.173 59.032C139.494 59.078 144 63.521 144 69.707C144 77.1 133.919 82.553 128 78.362" />
    <glyph glyph-name="bug"
      unicode="&#xEA2C;"
      horiz-adv-x="256" d="M76.2 243.8C73.128 240.728 74.842 237.622 85.434 227.066L95.868 216.668L93.156 212.584C89.963 207.775 87 201.501 87 199.551C87 198.792 84.862 196.592 82.25 194.662C79.638 192.732 75.723 189.321 73.552 187.082L69.604 183.01L59.447 193.005C53.861 198.502 48.875 203 48.367 203C47.86 203 46.445 202.299 45.223 201.443C40.884 198.405 42.229 195.493 53.051 184.496L63.102 174.282L59.529 168.185C51.84 155.066 46.484 139.934 43.978 124.25L42.819 117L28.11 117C12.33 117 11 116.611 11 112C11 107.385 12.325 107 28.2 107L43 107L43 101.131C43 84.667 49.671 61.71 58.832 46.648C61.125 42.879 63 39.496 63 39.129C63 38.762 58.5 33.979 53 28.5C42.85 18.388 41.154 15.246 44.2 12.2C47.197 9.203 50.337 10.873 60.227 20.726L69.99 30.452L76.245 24.34C109.027 -7.694 155.361 -8 189.829 23.589L197.157 30.306L206.847 20.653C216.782 10.755 219.304 9.447 222.429 12.571C225.515 15.658 224.191 18.104 213.592 28.899L203.185 39.5L205.662 43C215.113 56.356 223.97 85.222 223.994 102.75L224 107L238.429 107C253.567 107 256.023 107.674 255.985 111.821C255.946 116.102 254.694 116.48 238.841 117L223.604 117.5L222.354 126.173C220.252 140.762 214.046 157.732 205.861 171.273L203.581 175.045L213.879 185.379C224.932 196.469 226.115 199.151 221.063 201.66C217.691 203.336 216.083 202.339 205.758 192.169L197.017 183.559L192.258 188.13C189.641 190.645 185.837 193.929 183.805 195.428C181.272 197.297 179.62 199.623 178.552 202.827C177.695 205.397 175.658 209.513 174.025 211.974L171.056 216.447L181.528 227.074C192.194 237.898 193.521 240.336 190.429 243.429C187.254 246.603 184.791 245.257 173.898 234.398L163.263 223.797L159.062 226.84C144.977 237.043 119.84 236.557 106.06 225.815L103.62 223.913L93.044 234.457C82.325 245.142 79.249 246.849 76.2 243.8M141.201 222.877C153.821 220.202 165.009 210.264 168.515 198.616L169.893 194.038L163.696 190.585C147.794 181.724 133.159 179.527 119.043 183.883C110.068 186.652 98.125 192.511 97.352 194.525C96.339 197.166 100.416 205.218 105.671 210.953C115.565 221.751 127.544 225.771 141.201 222.877M96.579 182.026C104.007 177.685 117.047 172.649 123.75 171.532L128 170.824L128 90.912L128 11L125.71 11C121.833 11 111.816 13.93 105.258 16.982C71.35 32.764 50.028 74.064 54.022 116.222C56.092 138.069 62.536 155.115 75.207 172.258C79.812 178.49 87.389 186 89.069 186C89.459 186 92.839 184.212 96.579 182.026M184.787 180.132C192.802 171.9 195.367 168.415 200.448 158.863C205.953 148.514 210.347 135.219 212.019 123.853C213.905 111.034 212.833 91.056 209.585 78.523C201.102 45.785 176.978 19.573 148.936 12.626C145.326 11.732 141.613 11 140.686 11C139.119 11 139 16.627 139 90.929L139 170.858L144.75 172.025C152.259 173.55 162.998 177.85 170.5 182.336C173.8 184.31 177.079 185.942 177.787 185.962C178.494 185.983 181.644 183.359 184.787 180.132" />
    <glyph glyph-name="share-66"
      unicode="&#xEA2D;"
      horiz-adv-x="256" d="M108.274 211.726C95.473 198.926 85 187.88 85 187.181C85 185.552 89.523 181 91.141 181C91.819 181 100.39 188.971 110.187 198.714L128 216.427L128 147.285C128 71.932 127.766 75 133.515 75C139.121 75 139 73.394 139 147.936L139 216.427L156.813 198.714C166.61 188.971 175.06 181 175.591 181C177.941 181 181 184.27 181 186.783C181 188.93 176.548 193.904 158.226 212.226C144.082 226.37 134.712 235 133.499 235C132.286 235 122.742 226.195 108.274 211.726M33.571 147.429C32.172 146.029 32 138.044 32 74.584C32 6.805 32.09 3.229 33.829 1.655C35.504 0.139 43.879 0 133.772 0L231.887 0L233.443 2.223C234.816 4.183 235 12.713 235 74.5C235 136.287 234.816 144.817 233.443 146.777C231.908 148.969 231.551 149 207.966 149L184.046 149L182.408 146.5C180.891 144.184 180.891 143.816 182.408 141.5L184.046 139L204.023 139L224 139L224 75L224 11L133.5 11L43 11L43 75L43 139L62.8 139C76.867 139 82.947 139.347 83.8 140.2C85.701 142.101 85.258 146.792 83.066 147.965C81.893 148.592 72.075 149 58.137 149C38.567 149 34.909 148.766 33.571 147.429" />
    <glyph glyph-name="time-3"
      unicode="&#xEA2E;"
      horiz-adv-x="256" d="M113.422 243.487C99.678 240.97 89.478 237.61 78.171 231.875C36.316 210.646 11 169.407 11 122.455C11 75.379 37.302 33.671 80.5 12.249C113.352 -4.042 153.344 -3.954 186.5 12.482C217.283 27.742 238.773 52.236 249.497 84.286C259.199 113.278 257.772 143.952 245.414 172.058C225.781 216.712 181.58 245.318 132.874 244.892C126.068 244.832 117.315 244.2 113.422 243.487M144.637 233.934C171.031 230.991 193.616 220.184 212.19 201.61C233.685 180.115 244.971 153.027 244.992 122.881C245.024 79.054 220.352 40.41 179.992 21.071C156.249 9.694 123.415 7.856 98.049 16.483C78.407 23.164 60.688 35.201 47.98 50.495C28.342 74.13 19.108 103.856 22.117 133.752C23.548 147.969 26.835 159.165 33.518 172.589C50.376 206.45 83.499 229.662 121 233.894C131.818 235.115 134.015 235.119 144.637 233.934M129.655 190.171C128.184 188.546 128 184.599 128 154.671C128 122.333 128.079 120.921 130 119C131.919 117.081 133.333 117 165.045 117L198.091 117L200.545 119.455C203.521 122.43 203.589 123.411 201 126C199.089 127.911 197.667 128 169 128L139 128L139 158C139 186.667 138.911 188.089 137 190C134.509 192.491 131.811 192.554 129.655 190.171" />
    <glyph glyph-name="time"
      unicode="&#xEA2F;"
      horiz-adv-x="256" d="M118.5 244.338C117.4 244.101 112.675 243.195 108 242.323C72.826 235.766 40.353 210.719 23.584 177.211C16.178 162.414 11 141.69 11 126.847C11 120.696 11.239 119.89 13.5 118.408C15.785 116.911 16.207 116.906 18.411 118.35C20.497 119.717 20.913 120.982 21.493 127.715C23.186 147.387 26.422 159.172 34.289 174.305C46.346 197.501 65.819 215.318 90.744 225.959C131.841 243.505 179.939 233.861 212.19 201.61C233.685 180.115 244.971 153.027 244.992 122.881C245.024 79.054 220.352 40.41 179.992 21.071C156.871 9.992 125.694 7.895 100.5 15.724C91.525 18.512 77.54 25.156 70.615 29.921L66.026 33.078L77.017 47.702C83.062 55.745 87.858 62.475 87.675 62.658C87.148 63.185 12.926 67.259 12.453 66.787C12.22 66.553 17.284 51.431 23.707 33.181L35.384 0L38.442 0.037C41.175 0.07 42.442 1.346 50.355 12.037C55.225 18.617 59.5 23.998 59.855 23.996C60.21 23.993 62.525 22.618 65 20.939C71.866 16.282 84.597 10.034 93.534 6.935C107.977 1.926 116.9 0.567 135 0.622C150.217 0.668 152.433 0.917 163.5 3.825C204.139 14.501 236.176 44.476 249.497 84.286C259.199 113.278 257.772 143.952 245.414 172.058C225.78 216.716 181.545 245.34 132.874 244.884C126.068 244.82 119.6 244.574 118.5 244.338M129.655 190.171C128.184 188.546 128 184.599 128 154.671C128 122.333 128.079 120.921 130 119C131.919 117.081 133.333 117 165.045 117L198.091 117L200.545 119.455C203.521 122.43 203.589 123.411 201 126C199.089 127.911 197.667 128 169 128L139 128L139 158C139 186.667 138.911 188.089 137 190C134.509 192.491 131.811 192.554 129.655 190.171" />
    <glyph glyph-name="coffee"
      unicode="&#xEA30;"
      horiz-adv-x="256" d="M108.2 243.8C107.387 242.987 107 238.316 107 229.323C107 216.264 107.041 216.019 109.5 214.408C111.816 212.891 112.184 212.891 114.5 214.408C116.959 216.019 117 216.264 117 229.323C117 243.584 116.548 245 112 245C110.57 245 108.86 244.46 108.2 243.8M57 234.238C53.652 233.194 53 230.715 53 219.031C53 206.288 54.125 203 58.485 203C63.285 203 64 205.068 64 218.949C64 228.011 63.635 232.038 62.75 232.722C60.864 234.182 58.672 234.759 57 234.238M162.893 233.636C160.574 232.481 160.491 232.036 160.222 219.322C159.919 205.04 160.58 203 165.515 203C169.778 203 171.001 206.348 170.986 217.973C170.979 223.763 170.716 229.458 170.402 230.628C169.588 233.658 165.903 235.134 162.893 233.636M13.127 169.376L10.809 167.753L11.277 141.626C11.812 111.764 12.711 106.778 20.557 90.148C32.482 64.875 52.622 46.746 78.584 37.915C101.358 30.17 122.642 30.17 145.416 37.915C170.575 46.473 190.772 64.246 202.615 88.25L206.439 96L219.56 96C239.814 96 246.976 99.26 252.94 111.196L256 117.319L256 142.16C256 165.667 255.893 167.107 254 169C252.023 170.977 250.667 171 133.723 171C26.2 171 15.234 170.852 13.127 169.376M202.718 140.25C202.021 116.689 199.825 106.283 192.593 92.29C176.454 61.064 146.934 43.014 112 43.014C77.066 43.014 47.546 61.064 31.407 92.29C24.175 106.283 21.979 116.689 21.282 140.25L20.699 160L112 160L203.301 160L202.718 140.25M245 139.46C245 121.002 244.8 118.529 243.031 115.061C239.591 108.318 236.156 107 222.024 107L209.783 107L210.479 109.75C212.374 117.238 212.989 125.058 212.994 141.75L213 160L229 160L245 160L245 139.46M13.223 9.443C10.37 7.445 10.2 2.498 12.934 1.035C14.23 0.342 46.957 0 112 0C177.043 0 209.77 0.342 211.066 1.035C213.8 2.498 213.63 7.445 210.777 9.443C208.803 10.826 197.771 11 112 11C26.229 11 15.197 10.826 13.223 9.443" />
    <glyph glyph-name="smile"
      unicode="&#xEA31;"
      horiz-adv-x="256" d="M113.422 243.487C99.678 240.97 89.478 237.61 78.171 231.875C36.316 210.646 11 169.407 11 122.455C11 75.379 37.302 33.671 80.5 12.249C113.352 -4.042 153.344 -3.954 186.5 12.482C217.283 27.742 238.773 52.236 249.497 84.286C259.199 113.278 257.772 143.952 245.414 172.058C225.781 216.712 181.58 245.318 132.874 244.892C126.068 244.832 117.315 244.2 113.422 243.487M144.637 233.934C171.031 230.991 193.616 220.184 212.19 201.61C233.685 180.115 244.971 153.027 244.992 122.881C245.024 79.054 220.352 40.41 179.992 21.071C156.249 9.694 123.415 7.856 98.049 16.483C78.407 23.164 60.688 35.201 47.98 50.495C28.342 74.13 19.108 103.856 22.117 133.752C23.548 147.969 26.835 159.165 33.518 172.589C50.376 206.45 83.499 229.662 121 233.894C131.818 235.115 134.015 235.119 144.637 233.934M81.019 153.937C76.138 152.845 70.427 146.484 69.523 141.134C68.616 135.769 71.99 128.504 76.898 125.251C83.33 120.99 93.701 122.963 98.219 129.308C101.554 133.991 101.852 142.507 98.835 146.946C94.848 152.812 88 155.499 81.019 153.937M177.019 153.937C172.138 152.845 166.427 146.484 165.523 141.134C164.616 135.769 167.99 128.504 172.898 125.251C179.33 120.99 189.701 122.963 194.219 129.308C197.554 133.991 197.852 142.507 194.835 146.946C190.848 152.812 184 155.499 177.019 153.937M97.515 94.017C96.03 92.376 95.837 91.041 96.397 86.276C97.304 78.566 100.86 71.134 106.556 65.044C127.375 42.787 165.111 54.601 169.918 84.88C171.076 92.177 170.275 94.642 166.431 95.607C162.805 96.517 160 93.637 160 89.005C160 83.744 154.7 73.722 149.912 69.93C136.29 59.141 116.269 64.078 109.077 80C107.959 82.475 107.034 86.187 107.022 88.25C106.984 94.797 101.327 98.229 97.515 94.017" />
    <glyph glyph-name="sad"
      unicode="&#xEA32;"
      horiz-adv-x="256" d="M113.422 243.487C99.678 240.97 89.478 237.61 78.171 231.875C36.316 210.646 11 169.407 11 122.455C11 75.379 37.302 33.671 80.5 12.249C113.352 -4.042 153.344 -3.954 186.5 12.482C217.283 27.742 238.773 52.236 249.497 84.286C259.199 113.278 257.772 143.952 245.414 172.058C225.781 216.712 181.58 245.318 132.874 244.892C126.068 244.832 117.315 244.2 113.422 243.487M144.637 233.934C171.031 230.991 193.616 220.184 212.19 201.61C233.685 180.115 244.971 153.027 244.992 122.881C245.024 79.054 220.352 40.41 179.992 21.071C156.249 9.694 123.415 7.856 98.049 16.483C78.407 23.164 60.688 35.201 47.98 50.495C28.342 74.13 19.108 103.856 22.117 133.752C23.548 147.969 26.835 159.165 33.518 172.589C50.376 206.45 83.499 229.662 121 233.894C131.818 235.115 134.015 235.119 144.637 233.934M81.019 153.937C76.138 152.845 70.427 146.484 69.523 141.134C68.616 135.769 71.99 128.504 76.898 125.251C83.33 120.99 93.701 122.963 98.219 129.308C101.554 133.991 101.852 142.507 98.835 146.946C94.848 152.812 88 155.499 81.019 153.937M177.019 153.937C172.138 152.845 166.427 146.484 165.523 141.134C164.616 135.769 167.99 128.504 172.898 125.251C179.33 120.99 189.701 122.963 194.219 129.308C197.554 133.991 197.852 142.507 194.835 146.946C190.848 152.812 184 155.499 177.019 153.937M123.081 94.412C116.281 92.583 112.739 90.386 106.8 84.309C101.196 78.577 97.32 70.572 96.414 62.864C95.837 57.96 96.023 56.977 97.877 55.123C99.045 53.955 100.47 53 101.045 53C103.233 53 107 57.953 107 60.829C107 69.345 114.191 79.115 123.364 83.061C129.345 85.634 139.36 85.416 144.818 82.594C153.379 78.167 160 68.298 160 59.962C160 57.074 162.952 53 165.045 53C165.62 53 167.148 54.057 168.44 55.349C170.458 57.367 170.714 58.388 170.26 62.599C169.438 70.215 166.461 77.017 161.436 82.757C151.596 93.996 137.484 98.284 123.081 94.412" />
    <glyph glyph-name="broken-heart"
      unicode="&#xEA33;"
      horiz-adv-x="256" d="M62.492 243.136C31.473 234.25 11 207.743 11 176.468C11 140.961 42.966 92.288 103.598 35.474C125.051 15.371 130.366 11 133.355 11C136.267 11 144.1 17.505 164.5 36.866C212.875 82.775 244.456 125.381 253.178 156.5C256.128 167.023 256.346 185.479 253.627 194.5C247.059 216.291 229.488 234.747 208.715 241.675C201.383 244.12 199.049 244.414 187 244.414C175.023 244.414 172.595 244.112 165.479 241.736C155.89 238.534 147.203 233.425 138.938 226.126L132.852 220.752L130.176 223.782C122.255 232.747 107.975 240.839 95.354 243.513C86.032 245.488 70.063 245.305 62.492 243.136M96.107 232.376C107.103 229.112 116.585 223.098 123.934 214.728L127.159 211.055L111.453 183.338C97.911 159.439 95.869 155.276 96.628 153.116C97.286 151.247 103.712 146.885 121.967 135.919C135.419 127.837 146.578 120.767 146.764 120.207C146.951 119.646 142.772 110.534 137.478 99.956C127.174 79.37 126.533 76.657 131.67 75.368C133.122 75.004 135.027 75.13 135.905 75.649C137.659 76.686 157.231 114.264 159.119 120.218C160.054 123.169 160.03 124.26 158.999 125.501C158.285 126.362 147.08 133.416 134.1 141.177C121.12 148.937 110.1 155.645 109.612 156.081C109.12 156.522 115.555 168.931 124.055 183.935C140.707 213.325 145.202 219.135 156.588 225.989C166.524 231.969 173.942 233.945 186.568 233.974C204.633 234.016 215.423 229.599 228.007 217.01C236.309 208.705 240.905 200.749 243.607 190.006C245.785 181.349 245.063 166.152 242.016 156.5C239.323 147.969 232.001 133.11 225.509 123C209.499 98.066 177.883 62.778 145.591 33.798C134.447 23.798 133.55 23.202 131.636 24.542C126.205 28.346 98.077 55.329 83.872 70.363C52.753 103.295 34.274 129.723 25.74 153.5C18.738 173.01 20.536 191.846 30.909 207.646C45.232 229.462 71.877 239.569 96.107 232.376" />
    <glyph glyph-name="heart-2"
      unicode="&#xEA34;"
      horiz-adv-x="256" d="M68.575 234.009C41.438 229.089 19.761 208.935 12.945 182.286C8.848 166.267 11.059 147.255 18.717 132.646C22.084 126.224 27.981 119.956 76.952 70.75C112.818 34.712 132.127 16 133.448 16C135.784 16 234.388 113.912 241.708 123.5C258.304 145.241 260.484 174.853 247.265 199C242.017 208.585 227.635 222.472 218 227.258C191.115 240.611 160.628 236.048 139.021 215.439L133.414 210.09L126.692 216.427C119.417 223.285 107.432 230.022 98 232.557C91.133 234.402 75.108 235.193 68.575 234.009M99.12 220.77C110.884 216.456 117.965 211.192 128.185 199.162C131.215 195.596 132.282 194.947 134.185 195.514C135.458 195.893 137.359 197.395 138.409 198.852C139.458 200.308 143.3 204.425 146.945 208C161.101 221.883 181.463 227.124 201.415 222.022C212.391 219.215 218.341 215.694 227.606 206.523C239.994 194.262 245 182.267 245 164.845C245 154.962 242.954 146.689 238.236 137.5C235.008 131.213 229.49 125.327 184.088 79.736L133.535 28.972L84.217 78.236C56.724 105.699 33.181 130.051 31.016 133.264C25.993 140.721 23.148 148.449 21.945 157.906C18.362 186.073 35.412 212.728 62.5 221.307C70.076 223.706 71.691 223.886 82.5 223.528C89.983 223.281 94.166 222.587 99.12 220.77" />
    <glyph glyph-name="pin-3"
      unicode="&#xEA35;"
      horiz-adv-x="256" d="M120.5 244.295C114.021 243.418 101.151 239.573 94.378 236.49C74.914 227.63 60.432 213.474 51.423 194.5C44.751 180.448 43.591 174.931 43.542 157C43.5 141.634 43.532 141.407 47.247 130.675C57.295 101.649 83.856 61.858 118.454 24C129.199 12.242 130.64 11 133.539 11C137.782 11 167.271 44.455 185.782 70.271C213.964 109.571 225.345 136.998 223.641 161.5C221.958 185.683 213.777 203.363 196.774 219.559C179.12 236.375 156.626 245.224 132.5 244.843C127.55 244.764 122.15 244.518 120.5 244.295M153.5 232.1C173.134 226.552 188.252 216.112 199.724 200.18C211.452 183.893 216.043 159.216 211.007 139.526C204.492 114.054 178.787 74.258 142.96 34.177L133.733 23.855L129.782 27.677C117.337 39.72 87.767 77.413 76.191 95.992C67.123 110.545 59.539 126.13 56.478 136.5C53.245 147.456 52.859 162.172 55.497 174C57.664 183.722 64.555 197.883 70.89 205.634C82.152 219.414 101.796 230.37 121.831 234.045C128.96 235.353 145.606 234.331 153.5 232.1M125.355 190.961C119.547 189.811 112.175 185.864 107.704 181.511C92.652 166.854 92.162 144.432 106.556 129.044C126.794 107.408 163.495 117.879 169.572 147.024C175.109 173.579 152.259 196.285 125.355 190.961M144.5 178.647C158.443 172.14 163.785 155.562 156.344 141.891C143.352 118.019 107.087 127.293 107.032 154.5C106.993 173.738 127.163 186.738 144.5 178.647" />
    <glyph glyph-name="marker-3"
      unicode="&#xEA36;"
      horiz-adv-x="256" d="M117.5 243.527C95.182 238.639 74.655 219.844 67.316 197.578C64.963 190.439 64.653 187.931 64.653 176C64.653 164.017 64.957 161.577 67.359 154.285C74.881 131.45 95.565 113.129 119.25 108.324L128 106.549L128 76.346C128 43.583 128.096 43 133.515 43C138.692 43 139 44.91 139 77.05L139 106.654L145.75 107.897C160.196 110.556 172.52 117.189 183 127.946C197.939 143.279 204.641 163.251 201.994 184.549C200.036 200.305 194.075 212.66 183 223.916C172.462 234.627 161.987 240.602 148.5 243.597C140.929 245.279 125.337 245.243 117.5 243.527M150 232.439C164.135 228.299 178.815 216.09 185.34 203.047C198.933 175.877 190.86 144.361 165.992 127.512C152.931 118.662 138.533 115.544 123.476 118.304C110.323 120.715 101.304 125.47 92 134.899C80.163 146.895 75 159.377 75 176C75 192.703 80.134 205.167 91.907 217.042C100.45 225.659 109.878 230.995 121 233.507C128.796 235.268 142.001 234.781 150 232.439M45.223 9.443C42.37 7.445 42.2 2.498 44.934 1.035C46.225 0.344 75.782 0 133.779 0C216.707 0 220.766 0.084 222.345 1.829C224.544 4.259 224.433 6.567 222 9C220.031 10.969 218.667 11 133.723 11C57.253 11 47.192 10.823 45.223 9.443" />
    <glyph glyph-name="globe-2"
      unicode="&#xEA37;"
      horiz-adv-x="256" d="M182.557 242.777C181.701 241.555 181 240.178 181 239.717C181 239.256 185.87 234.069 191.821 228.189C202.949 217.197 208.058 210.355 213.606 199.015C236.643 151.931 219.336 94.562 173.889 67.367C145.496 50.377 108.203 48.882 78.679 63.552C66.188 69.759 58.591 75.487 48.285 86.468C38.935 96.43 36.726 97.564 33.536 94.04C30.764 90.976 32.191 88.117 41.347 78.399C54.063 64.902 69.84 54.427 85.834 48.864C92.857 46.42 109.059 43 113.61 43L117 43L117 27L117 11L92.5 11C69.333 11 67.891 10.891 66 9C63.509 6.509 63.446 3.811 65.829 1.655C67.484 0.157 72.864 0 122.394 0C158.214 0 177.8 0.358 179.066 1.035C181.8 2.498 181.63 7.445 178.777 9.443C176.914 10.748 172.632 11 152.277 11L128 11L128 26.862L128 42.724L134.469 43.387C176.775 47.721 214.732 77.901 228.309 118C236.291 141.572 236.299 169.122 228.331 191.312C221.306 210.875 209.798 227.593 194.698 240.168C188.284 245.51 184.97 246.222 182.557 242.777M107.868 222.56C94.04 219.661 78.801 210.252 69.197 198.684C58.701 186.042 53.718 172.167 53.685 155.5C53.659 142.379 55.191 135.502 60.688 124.067C64.442 116.257 66.622 113.236 73.361 106.502C85.649 94.224 97.417 88.33 114.072 86.114C130.481 83.93 146.156 87.517 160.119 96.65C173.694 105.529 184.429 119.709 189.154 135C192.438 145.626 192.478 164.347 189.238 174.5C182.023 197.116 164.39 214.64 141.998 221.446C134.46 223.738 116.312 224.33 107.868 222.56M136.76 211.494C154.715 207.261 170.901 192.956 177.624 175.377C179.567 170.299 180.387 165.954 180.76 158.765C181.76 139.515 176.846 126.541 163.616 113.5C154.384 104.4 146.269 99.871 134.922 97.484C98.163 89.751 64 117.709 64 155.524C64 163.132 67.09 175.557 70.574 181.959C78.326 196.201 92.443 207.313 108 211.417C115.188 213.314 128.888 213.351 136.76 211.494" />
    <glyph glyph-name="world-2"
      unicode="&#xEA38;"
      horiz-adv-x="256" d="M125 244.831C93.309 242.338 66.206 229.537 44.369 206.749C8.827 169.659 0.74 113.114 24.358 66.833C36.296 43.438 55.753 24.521 80.5 12.249C113.352 -4.042 153.344 -3.954 186.5 12.482C217.283 27.742 238.773 52.236 249.497 84.286C270.019 145.613 239.471 211.492 179 236.32C163.297 242.767 141.811 246.154 125 244.831M103.246 225.25C81.526 204.032 68.409 174.85 64.916 139.978L63.717 128L42.715 128L21.712 128L22.376 135.956C24.465 161.009 39.547 189.245 60.5 207.331C72.338 217.55 88.948 226.628 103 230.562C110.423 232.639 110.439 232.277 103.246 225.25M165.496 229.928C201.185 218.905 230.295 189.618 240.473 154.497C243.079 145.503 244.979 135.511 244.992 130.73L245 127.96L223.75 128.23L202.5 128.5L201.799 138.331C200.414 157.765 195.326 176.174 186.586 193.375C179.983 206.371 173.523 215.225 163.694 224.75C159.58 228.738 156.793 232 157.501 232C158.21 232 161.807 231.068 165.496 229.928M128 179.5L128 128L101.352 128L74.705 128L75.363 137.25C77.622 169.013 92.905 202.685 112.84 219.824C118.222 224.451 126.9 231 127.65 231C127.843 231 128 207.825 128 179.5M158.223 215.177C177.579 195.172 188.462 169.064 191.543 135.25L192.203 128L165.601 128L139 128L139 179.564L139 231.128L144.898 226.991C148.142 224.715 154.138 219.399 158.223 215.177M64.46 109.75C66.559 86.82 70.717 71.245 79.478 53.5C86.776 38.717 92.56 30.641 103.285 20.26C111.579 12.233 111.567 12.225 97.927 16.611C65.4 27.071 38.695 53.846 27.225 87.5C24.576 95.274 22 107.823 22 112.958L22 117L42.899 117L63.797 117L64.46 109.75M128 66C128 37.95 127.744 15 127.43 15C126.019 15 116.925 21.93 111.101 27.443C90.844 46.617 77.855 76.013 75.373 108.305L74.705 117L101.352 117L128 117L128 66M191.544 109.75C187.984 70.572 172.11 38.615 146.942 19.957C143.264 17.231 139.973 15 139.628 15C139.282 15 139 37.95 139 66L139 117L165.601 117L192.203 117L191.544 109.75M245 114.631C245 105.571 239.029 83.925 233.517 73C219.727 45.672 193.709 23.703 165.426 15.507C160.669 14.128 156.585 13 156.352 13C156.118 13 158.897 15.779 162.528 19.175C176.307 32.064 188.542 51.946 195.036 72C198.684 83.264 202 101.646 202 110.599L202 117L223.5 117L245 117L245 114.631" />
    <glyph glyph-name="phone-2"
      unicode="&#xEA39;"
      horiz-adv-x="256" d="M28.813 217.286L11 199.573L11 191.01C11 160.441 22.359 122.266 39.806 94.197C74.606 38.212 132.206 4.096 198.227 0.365L210.065 -0.304L227.532 17.061C241.028 30.476 245 35.004 245 36.969C245 38.968 238.946 45.564 216.744 67.757C199.378 85.114 187.748 96 186.569 96C185.437 96 178.651 90.049 170.033 81.5C161.994 73.525 154.983 67 154.454 67C153.924 67 136.178 84.317 115.019 105.481L76.547 143.963L91.773 159.304C100.148 167.742 107 175.279 107 176.054C107 177.899 49.89 235 48.044 235C47.264 235 38.61 227.029 28.813 217.286M70.982 198.518L93.448 176.035L78.724 161.192C67.979 150.361 64 145.702 64 143.952C64 142.127 74.214 131.317 106.75 98.708C144.727 60.645 152.902 53 155.628 53C156.027 53 163.148 59.743 171.451 67.984L186.548 82.968L209.513 59.987L232.477 37.006L219.489 23.913L206.5 10.819L195.5 11.331C161.155 12.929 125.695 26.042 95.815 48.197C85.452 55.881 68.192 73.085 60.117 83.78C37.43 113.826 25.022 146.103 22 182.932L21.051 194.5L34.262 207.75C41.527 215.038 47.707 221 47.994 221C48.282 221 58.626 210.883 70.982 198.518" />
    <glyph glyph-name="check-square-11"
      unicode="&#xEA3A;"
      horiz-adv-x="256" d="M180.78 177.272L123.021 119.544L102.705 139.772C82.019 160.368 79.972 161.829 76.571 158.429C73.064 154.922 74.484 152.999 97.758 129.742C115.158 112.354 121.098 107 122.988 107C124.924 107 138.445 119.977 185.23 166.739C248.954 230.429 248.248 229.611 242.777 233.443C241.555 234.299 240.102 235 239.548 235C238.994 235 212.548 209.022 180.78 177.272M23 222C21.027 220.027 21 218.667 21 122.955L21 25.909L23.455 23.455L25.909 21L122.955 21C218.667 21 220.027 21.027 222 23C223.952 24.952 224 26.333 224 80C224 133.667 223.952 135.048 222 137C219.411 139.589 218.43 139.521 215.455 136.545L213 134.091L213 83.045L213 32L122.5 32L32 32L32 122.5L32 213L99.045 213L166.091 213L168.545 215.455C171.521 218.43 171.589 219.411 169 222C167.038 223.962 165.667 224 96 224C26.333 224 24.962 223.962 23 222" />
    <glyph glyph-name="wallet-90"
      unicode="&#xEA3B;"
      horiz-adv-x="256" d="M65.571 243.429C64.378 242.235 64 239.712 64 232.929L64 224L49.182 224C31.294 224 25.78 222.682 19.518 216.91C17.158 214.734 14.262 210.711 13.082 207.97C10.944 202.999 10.938 202.757 10.983 116.492C11.027 32.422 11.085 29.848 13.034 24.638C16.695 14.854 25.237 6.216 35.201 2.223C39.159 0.636 47.927 0.478 145.892 0.224C244.393 -0.032 252.422 0.072 254.142 1.629C255.926 3.243 256 6.806 256 90.584C256 168.59 255.833 178.024 254.429 179.429C253.145 180.712 250.212 181 238.429 181L224 181L224 211.429C224 237.758 223.788 242.069 222.429 243.429C221.027 244.83 212.537 245 144 245C75.463 245 66.973 244.83 65.571 243.429M213 208L213 181L144 181L75 181L75 208L75 235L144 235L213 235L213 208M64 196.893L64 180.786L48.75 181.145C35.577 181.455 33.024 181.784 30.003 183.556C19.524 189.706 19.104 204.825 29.241 211.005C32.128 212.766 34.298 212.993 48.25 212.996L64 213L64 196.893M26.141 173.022C30.396 171.091 33.057 171.043 137.75 171.022L245 171L245 91L245 11L144.178 11C31.381 11 37.744 10.6 29.939 18.175C27.665 20.382 24.836 24.283 23.652 26.844C21.521 31.454 21.497 32.213 21.218 103.25C21.064 142.713 21.127 175 21.359 175C21.592 175 23.743 174.11 26.141 173.022M176 114.923C158.747 107.13 154.713 85.382 168.048 72.048C181.769 58.326 204.558 63.184 211.479 81.305C213.855 87.527 213.2 98.322 210.147 103.261C202.673 115.356 188.028 120.357 176 114.923M193.061 105.4C196.121 104.587 201.231 98.205 201.925 94.329C203.806 83.83 197.064 75.012 187.151 75.004C177.761 74.996 171.845 80.549 171.245 89.935C170.479 101.931 180.192 108.817 193.061 105.4" />
    <glyph glyph-name="credit-card"
      unicode="&#xEA3C;"
      horiz-adv-x="256" d="M28.324 222.37C22.333 220.237 15.66 213.961 13.131 208.082C10.993 203.113 10.983 202.711 10.989 123.295C10.992 76.307 11.382 42.149 11.938 40.215C14.052 32.848 19.58 26.901 27.75 23.199C31.2 21.636 39.666 21.5 133.5 21.5C247.304 21.5 238.513 20.951 246.962 28.585C249.263 30.663 252.125 34.194 253.322 36.432L255.5 40.5L255.773 120.414C256.082 210.782 256.334 207.393 248.748 215.183C246.412 217.582 242.7 220.435 240.5 221.523C236.602 223.45 233.908 223.505 134.5 223.678C46.456 223.832 31.929 223.653 28.324 222.37M237.5 210.718C243.512 207.339 244.997 203.484 244.998 191.246L245 180.991L133.25 181.246L21.5 181.5L21.173 188.5C20.762 197.311 22.428 205.115 25.291 207.798C31.133 213.271 25.234 212.989 133.5 212.977L233.5 212.967L237.5 210.718M245 155L245 139L133 139L21 139L21 154.333C21 162.767 21.3 169.967 21.667 170.333C22.033 170.7 72.433 171 133.667 171L245 171L245 155M245 85.648C245 43.373 244.996 43.29 242.75 39.99C241.513 38.172 239.23 35.743 237.677 34.592C234.862 32.506 234.557 32.499 134.289 32.236L33.724 31.972L29.368 34.525C21.341 39.229 21.538 37.99 21.209 85.75L20.918 128L132.959 128L245 128L245 85.648M54.408 82.5C52.891 80.184 52.891 79.816 54.408 77.5L56.046 75L85.323 75C116.61 75 117 75.062 117 80C117 84.938 116.61 85 85.323 85L56.046 85L54.408 82.5M193.571 83.429C192.707 82.564 192 81.021 192 80C192 76.239 194.695 75 202.871 75C211.28 75 213 75.849 213 80C213 84.151 211.28 85 202.871 85C197.179 85 194.729 84.586 193.571 83.429" />
    <glyph glyph-name="payment"
      unicode="&#xEA3D;"
      horiz-adv-x="256" d="M77.665 242.572C62.915 236.461 55.888 227.306 53.765 211.435L52.636 203L34.04 203C18.829 203 15.041 202.717 13.223 201.443L11 199.887L11 144L11 88.113L13.223 86.557C15.042 85.282 18.842 85 34.177 85L52.909 85L53.413 81.75C53.689 79.963 54.204 75.816 54.557 72.536C56.841 51.271 71.225 28.147 90.256 15.145C97.253 10.364 108.412 5.329 117.5 2.85C123.748 1.146 128.347 0.659 138.5 0.627C152.683 0.581 159.698 1.927 172.245 7.101C192.239 15.346 210.662 34.505 218.389 55.09C223.514 68.745 224 74.589 224 122.61C224 165.667 223.94 167.06 222 169C219.642 171.358 217.737 171.439 208.869 169.56C200.087 167.698 192.835 163.903 186.361 157.78C174.76 146.808 171 137.203 171 118.54L171 106.258L166.124 105.611C154.866 104.117 139.92 92.943 133.774 81.425C128.227 71.03 126.445 58.555 130 55C132.465 52.535 133.181 52.516 136.054 54.843C137.763 56.227 138.508 58.193 139.044 62.738C140.027 71.081 143.761 78.666 149.913 84.818C156.548 91.453 160.898 93.63 171.035 95.389C175.529 96.169 179.561 97.188 179.994 97.653C180.427 98.119 180.996 105.7 181.259 114.5C181.863 134.761 183.354 139.313 192.361 148.409C198.753 154.865 202.91 157.355 209.25 158.528L213 159.223L212.983 117.361C212.963 69.285 212.678 66.842 205.36 52C201.358 43.882 199.282 41.112 191.088 32.957C183.683 25.587 179.678 22.482 173.5 19.321C160.307 12.571 155.631 11.534 138.5 11.553C124.895 11.569 122.756 11.821 115.5 14.26C91.683 22.266 72.6 42.362 66.561 65.798C65.752 68.934 64.784 74.537 64.408 78.25L63.724 85L77.862 85C90.667 85 92.189 85.189 94 87C96.491 89.491 96.554 92.189 94.171 94.345C92.542 95.82 88.46 96 56.671 96L21 96L21 144L21 192L133 192L245 192L245 135.723C245 74.524 244.957 75 250.485 75C256.194 75 256 72.761 256 138.571C256 197.667 255.956 199.044 254 201C252.138 202.862 250.667 203 232.628 203L213.257 203L212.801 210.87C212.025 224.284 204.664 235.066 192.023 241.304L185.546 244.5L134.523 244.745L83.5 244.989L77.665 242.572M186.14 232.847C195.289 228.692 201.368 219.957 202.562 209.25L203.258 203L133.492 203L63.726 203L64.23 209.279C65.259 222.095 73.392 231.248 86.5 234.342C87.6 234.601 109.65 234.743 135.5 234.657C176.855 234.519 182.937 234.301 186.14 232.847M125.708 157.967C115.552 152.455 114.52 138.282 123.761 131.233C128.453 127.654 137.286 127.338 141.677 130.592C151.425 137.815 151.493 150.137 141.824 157.298C137.893 160.209 130.41 160.52 125.708 157.967" />
    <glyph glyph-name="tag"
      unicode="&#xEA3E;"
      horiz-adv-x="256" d="M12.75 243.92C11.12 242.97 11 239.431 11 192.197L11 141.494L76.253 76.247C127.695 24.81 142.033 11 143.999 11C147.663 11 245 108.343 245 112.007C245 114 231.483 128.032 179.732 179.76L114.464 245L64.482 244.97C32.398 244.95 13.873 244.574 12.75 243.92M171.001 173.499L232.496 111.998L188.249 67.751L144.002 23.504L82.501 84.999L21 146.494L21 190.747L21 235L65.253 235L109.506 235L171.001 173.499M74.782 201.904C65.26 200.432 56.056 191.403 54.004 181.521C50.115 162.785 66.735 146.104 85.427 149.985C99.507 152.908 109.027 167.32 106.05 181.204C102.927 195.763 90.078 204.269 74.782 201.904M86.655 190.359C96.696 185.595 98.921 173.206 91.194 165.084C87.075 160.753 82.43 159.321 76.259 160.479C71.492 161.373 65.351 167.614 64.435 172.493C61.956 185.707 74.761 196.003 86.655 190.359" />
    <glyph glyph-name="tag-cut"
      unicode="&#xEA3F;"
      horiz-adv-x="256" d="M28.315 227.787L11 210.575L11 170.526L11 130.477L70.77 70.739C117.703 23.829 131.072 11 133.023 11C136.657 11 245 119.36 245 122.994C245 124.949 232.219 138.263 185.241 185.241L125.481 245L85.555 245L45.63 245L28.315 227.787M176.501 178.999L232.495 122.998L182.749 73.251L133.002 23.505L77.001 79.499L21 135.493L21 170.485L21 205.476L35.737 220.238L50.475 235L85.491 235L120.507 235L176.501 178.999M74.782 201.904C65.26 200.432 56.056 191.403 54.004 181.521C50.115 162.785 66.735 146.104 85.427 149.985C99.507 152.908 109.027 167.32 106.05 181.204C102.927 195.763 90.078 204.269 74.782 201.904M86.655 190.359C96.696 185.595 98.921 173.206 91.194 165.084C87.075 160.753 82.43 159.321 76.259 160.479C71.492 161.373 65.351 167.614 64.435 172.493C61.956 185.707 74.761 196.003 86.655 190.359" />
    <glyph glyph-name="tag-content"
      unicode="&#xEA40;"
      horiz-adv-x="256" d="M12.75 243.92C11.12 242.97 11 239.431 11 192.197L11 141.494L76.253 76.247C127.695 24.81 142.033 11 143.999 11C147.663 11 245 108.343 245 112.007C245 114 231.483 128.032 179.732 179.76L114.464 245L64.482 244.97C32.398 244.95 13.873 244.574 12.75 243.92M171.001 173.499L232.496 111.998L188.249 67.751L144.002 23.504L82.501 84.999L21 146.494L21 190.747L21 235L65.253 235L109.506 235L171.001 173.499M74.782 201.904C65.26 200.432 56.056 191.403 54.004 181.521C50.115 162.785 66.735 146.104 85.427 149.985C99.507 152.908 109.027 167.32 106.05 181.204C102.927 195.763 90.078 204.269 74.782 201.904M86.655 190.359C96.696 185.595 98.921 173.206 91.194 165.084C87.075 160.753 82.43 159.321 76.259 160.479C71.492 161.373 65.351 167.614 64.435 172.493C61.956 185.707 74.761 196.003 86.655 190.359M140.75 147.92C139.764 147.346 139 145.717 139 144.19C139 142.012 142.397 138.086 156.26 124.239C173.835 106.686 176.482 104.882 179.8 108.2C183.169 111.569 181.362 114.215 163.685 131.787C146.535 148.837 144.627 150.178 140.75 147.92M108.75 115.92C107.764 115.346 107 113.717 107 112.19C107 110.012 110.397 106.086 124.26 92.239C141.835 74.686 144.482 72.882 147.8 76.2C151.169 79.569 149.362 82.215 131.685 99.787C114.535 116.837 112.627 118.178 108.75 115.92" />
    <glyph glyph-name="flag-diagonal-33"
      unicode="&#xEA41;"
      horiz-adv-x="256" d="M184.388 234.902C176.614 228.708 168.735 224.99 159 222.922C156.525 222.396 144.15 221.537 131.5 221.013C105.33 219.928 97.902 218.634 88.005 213.433C76.205 207.232 61.966 191.255 63.345 185.761C64.141 182.59 109.643 101.961 111.959 99.619C114.849 96.694 118.173 98.188 122.22 104.23C130.718 116.92 141.787 124.372 154.622 126.045C158.405 126.538 171.85 127.385 184.5 127.927C204.537 128.786 208.532 129.236 215.509 131.42C227.91 135.303 242 144.665 242 149.023C242 151.677 196.426 232.85 193.308 235.75C190.133 238.702 189.024 238.597 184.388 234.902M209.271 187.316L229.923 150.632L226.376 148.222C221.871 145.161 214.913 142.078 208.505 140.304C205.436 139.455 194.023 138.57 179 138.017C165.525 137.521 151.823 136.6 148.552 135.97C139.312 134.192 129.5 128.706 121.821 121.028L115.109 114.316L95.055 149.952C84.025 169.552 75 186.095 75 186.714C75 188.437 84.783 198.755 89.485 201.99C97.983 207.837 104.314 209.131 129 210.071C141.375 210.543 153.75 211.22 156.5 211.576C164.319 212.59 175.97 216.607 182 220.367C185.025 222.253 187.752 223.842 188.059 223.898C188.366 223.954 197.912 207.492 209.271 187.316M26.2 192.8C25.54 192.14 25.01 190.453 25.021 189.05C25.034 187.528 45.711 150.819 76.307 98C123.345 16.795 127.799 9.473 130.346 9.178C133.818 8.774 136 10.514 136 13.685C136 15.983 36.357 189.5 33.258 192.599C31.541 194.316 27.822 194.422 26.2 192.8" />
    <glyph glyph-name="triangle-right-17"
      unicode="&#xEA47;"
      horiz-adv-x="256" d="M65.655 222.171C64.139 220.496 64 212.165 64 122.862C64 17.803 63.798 21.75 69.166 21.75C70.924 21.75 91.145 36.353 136.582 70.434C172.28 97.21 201.855 119.776 202.304 120.579C202.754 121.383 202.83 122.96 202.474 124.083C201.636 126.723 72.002 224 69.321 224C68.215 224 66.565 223.177 65.655 222.171M132.12 164.91C162.975 141.761 187.833 122.47 187.36 122.042C186.887 121.613 161.975 102.915 132 80.489C102.025 58.064 76.938 39.275 76.25 38.736C75.252 37.953 75 54.823 75 122.378C75 168.92 75.229 207 75.509 207C75.789 207 101.264 188.06 132.12 164.91" />
    <glyph glyph-name="puzzle-10"
      unicode="&#xEA48;"
      horiz-adv-x="256" d="M98.892 242.694C83.766 236.341 75 223.924 75 208.851L75 203L45.223 203C19.89 203 15.113 202.768 13.223 201.443L11 199.887L11 165.515C11 137 11.244 130.899 12.434 129.709C13.222 128.92 16.213 127.964 19.079 127.584C25.628 126.715 30.468 124.238 35.201 119.335C40.185 114.171 42.125 109.11 42.125 101.27C42.125 87.544 30.966 75 18.755 75C16.934 75 14.445 74.299 13.223 73.443L11 71.887L11 37.515C11 7.601 11.204 2.939 12.571 1.571C13.938 0.205 18.554 0 48 0C85.65 0 84.409 -0.225 85.501 6.782C87.193 17.631 92.001 24.865 100.455 29.282C106.142 32.253 117.858 32.253 123.545 29.282C131.999 24.865 136.807 17.631 138.499 6.782C139.591 -0.225 138.35 0 176 0C205.446 0 210.062 0.205 211.429 1.571C212.788 2.931 213 7.242 213 33.571L213 64L218.318 64C250.485 64 267.805 102.287 246.37 126.012C238.999 134.171 230.484 138.061 219.75 138.171L213 138.241L213 169.064C213 199.782 212.992 199.892 210.777 201.443C208.887 202.768 204.11 203 178.777 203L149 203L149 208.634C149 222.868 140.625 235.553 127.046 241.883C119.004 245.632 106.73 245.986 98.892 242.694M123.703 231.731C135.003 226.251 139.649 215.934 137.58 200.916C136.301 191.632 134.899 192 171.571 192L203 192L203 160.571C203 132.638 203.184 128.958 204.658 127.485C205.749 126.394 207.202 126.026 208.908 126.407C220.671 129.041 229.344 127.389 236.198 121.21C249.859 108.895 247.397 87.874 231.107 77.743C227.94 75.774 226.158 75.5 216.5 75.5C210.45 75.5 204.938 75.136 204.25 74.691C203.294 74.072 203 66.496 203 42.441L203 11L176.071 11L149.142 11L147.562 16.435C144.918 25.531 137.246 34.34 128.21 38.656C107.384 48.605 81.977 37.197 76.066 15.244L74.923 11L47.945 11L20.967 11L21.234 37.685L21.5 64.37L26 65.523C28.475 66.158 31.924 67.416 33.664 68.32C39.039 71.111 46.942 79.64 49.796 85.73C52.17 90.795 52.5 92.722 52.5 101.5C52.5 110.356 52.189 112.133 49.782 117.033C44.872 127.033 34.081 135.726 24.25 137.602L21 138.223L21 165.111L21 192L52.429 192C89.101 192 87.699 191.632 86.42 200.916C84.868 212.184 86.626 219.59 92.343 225.87C100.053 234.338 113.242 236.803 123.703 231.731" />
    <glyph glyph-name="triangle-right-17-2"
      unicode="&#xEA49;"
      horiz-adv-x="256" d="M70.4 232.5333333333334C67.168 234.9546666666667 62.848 235.3493333333334 59.232 233.5466666666667C55.616 231.7333333333334 53.3333333333333 228.0426666666667 53.3333333333333 224V32C53.3333333333333 27.9573333333333 55.616 24.2666666666667 59.232 22.4533333333333C60.736 21.7066666666667 62.3786666666667 21.3333333333333 64 21.3333333333333C66.2613333333333 21.3333333333333 68.5226666666667 22.0586666666667 70.4 23.4666666666667L198.4 119.4666666666667C201.088 121.472 202.6666666666667 124.64 202.6666666666667 128S201.088 134.5173333333334 198.4 136.5333333333333L70.4 232.5333333333334z" />
    <glyph glyph-name="btn-play"
      unicode="&#xEA4A;"
      horiz-adv-x="256" d="M113.422 243.487C99.678 240.97 89.478 237.61 78.171 231.875C36.316 210.646 11 169.407 11 122.455C11 75.379 37.302 33.671 80.5 12.249C113.352 -4.042 153.344 -3.954 186.5 12.482C217.283 27.742 238.773 52.236 249.497 84.286C259.199 113.278 257.772 143.952 245.414 172.058C225.781 216.712 181.58 245.318 132.874 244.892C126.068 244.832 117.315 244.2 113.422 243.487M144.637 233.934C171.031 230.991 193.616 220.184 212.19 201.61C233.685 180.115 244.971 153.027 244.992 122.881C245.024 79.054 220.352 40.41 179.992 21.071C156.249 9.694 123.415 7.856 98.049 16.483C78.407 23.164 60.688 35.201 47.98 50.495C28.342 74.13 19.108 103.856 22.117 133.752C23.548 147.969 26.835 159.165 33.518 172.589C50.376 206.45 83.499 229.662 121 233.894C131.818 235.115 134.015 235.119 144.637 233.934M109.223 169.443L107 167.887L107 122.643C107 88.787 107.302 77.098 108.2 76.2C111.051 73.349 115.084 75.516 147.5 97.311C181.689 120.3 183.199 121.626 179.827 125.721C178.362 127.5 113.382 171 112.19 171C111.78 171 110.445 170.299 109.223 169.443M142.129 138.914C155.383 130.066 165.839 122.472 165.364 122.038C164.563 121.306 121.036 92.285 118.25 90.626C117.26 90.037 117 96.663 117 122.441C117 140.348 117.232 155 117.515 155C117.799 155 128.875 147.761 142.129 138.914" />
    <glyph glyph-name="btn-play-2"
      unicode="&#xEA4B;"
      horiz-adv-x="256" d="M113.422 243.487C99.678 240.97 89.478 237.61 78.171 231.875C36.316 210.646 11 169.407 11 122.455C11 75.379 37.302 33.671 80.5 12.249C113.352 -4.042 153.344 -3.954 186.5 12.482C217.283 27.742 238.773 52.236 249.497 84.286C259.199 113.278 257.772 143.952 245.414 172.058C225.781 216.712 181.58 245.318 132.874 244.892C126.068 244.832 117.315 244.2 113.422 243.487M144.637 233.934C171.031 230.991 193.616 220.184 212.19 201.61C233.685 180.115 244.971 153.027 244.992 122.881C245.024 79.054 220.352 40.41 179.992 21.071C156.249 9.694 123.415 7.856 98.049 16.483C78.407 23.164 60.688 35.201 47.98 50.495C28.342 74.13 19.108 103.856 22.117 133.752C23.548 147.969 26.835 159.165 33.518 172.589C50.376 206.45 83.499 229.662 121 233.894C131.818 235.115 134.015 235.119 144.637 233.934M98 169C96.06 167.06 96 165.667 96 122.571C96 74.27 95.915 75 101.515 75C106.919 75 107 75.704 107 122.768L107 166.091L104.545 168.545C101.57 171.521 100.589 171.589 98 169M162 169C160.06 167.06 160 165.667 160 122.571C160 74.27 159.915 75 165.515 75C170.919 75 171 75.704 171 122.768L171 166.091L168.545 168.545C165.57 171.521 164.589 171.589 162 169" />
    <glyph glyph-name="menu-34"
      unicode="&#xEA4C;"
      horiz-adv-x="256" d="M13.223 201.443C10.37 199.445 10.2 194.498 12.934 193.035C14.236 192.338 53.723 192 133.779 192C247.708 192 252.759 192.077 254.345 193.829C256.544 196.259 256.433 198.567 254 201C252.023 202.977 250.667 203 133.723 203C28.291 203 15.204 202.831 13.223 201.443M12.571 126.429C10.316 124.173 10.63 120.372 13.223 118.557C15.204 117.169 28.291 117 133.723 117C250.667 117 252.023 117.023 254 119C256.491 121.491 256.554 124.189 254.171 126.345C252.491 127.865 242.663 128 133.243 128C26.303 128 13.982 127.84 12.571 126.429M12.2 51.8C10.653 50.253 10.653 45.747 12.2 44.2C13.12 43.28 41.34 43 133.129 43C240.639 43 253.017 43.16 254.429 44.571C256.436 46.578 256.436 49.422 254.429 51.429C253.017 52.84 240.639 53 133.129 53C41.34 53 13.12 52.72 12.2 51.8" />
    <glyph glyph-name="menu-left-2"
      unicode="&#xEA4D;"
      horiz-adv-x="256" d="M13.223 201.443C10.37 199.445 10.2 194.498 12.934 193.035C14.236 192.338 53.723 192 133.779 192C247.708 192 252.759 192.077 254.345 193.829C256.544 196.259 256.433 198.567 254 201C252.023 202.977 250.667 203 133.723 203C28.291 203 15.204 202.831 13.223 201.443M12.571 126.429C10.316 124.173 10.63 120.372 13.223 118.557C15.204 117.169 28.291 117 133.723 117C250.667 117 252.023 117.023 254 119C256.491 121.491 256.554 124.189 254.171 126.345C252.491 127.865 242.663 128 133.243 128C26.303 128 13.982 127.84 12.571 126.429M12.2 51.8C10.653 50.253 10.653 45.747 12.2 44.2C13.107 43.293 28.35 43 74.677 43L135.954 43L137.592 45.5C139.109 47.816 139.109 48.184 137.592 50.5L135.954 53L74.677 53C28.35 53 13.107 52.707 12.2 51.8" />
    <glyph glyph-name="heart-2-2"
      unicode="&#xEA4E;"
      horiz-adv-x="256" d="M68.575 234.009C41.438 229.089 19.761 208.935 12.945 182.286C8.848 166.267 11.059 147.255 18.717 132.646C22.084 126.224 27.981 119.956 76.952 70.75C112.818 34.712 132.127 16 133.448 16C135.784 16 234.388 113.912 241.708 123.5C258.304 145.241 260.484 174.853 247.265 199C242.017 208.585 227.635 222.472 218 227.258C191.115 240.611 160.628 236.048 139.021 215.439L133.414 210.09L126.692 216.427C119.417 223.285 107.432 230.022 98 232.557C91.133 234.402 75.108 235.193 68.575 234.009M99.12 220.77C110.884 216.456 117.965 211.192 128.185 199.162C131.215 195.596 132.282 194.947 134.185 195.514C135.458 195.893 137.359 197.395 138.409 198.852C139.458 200.308 143.3 204.425 146.945 208C161.101 221.883 181.463 227.124 201.415 222.022C212.391 219.215 218.341 215.694 227.606 206.523C239.994 194.262 245 182.267 245 164.845C245 154.962 242.954 146.689 238.236 137.5C235.008 131.213 229.49 125.327 184.088 79.736L133.535 28.972L84.217 78.236C56.724 105.699 33.181 130.051 31.016 133.264C25.993 140.721 23.148 148.449 21.945 157.906C18.362 186.073 35.412 212.728 62.5 221.307C70.076 223.706 71.691 223.886 82.5 223.528C89.983 223.281 94.166 222.587 99.12 220.77" />
    <glyph glyph-name="single-04-2"
      unicode="&#xEA4F;"
      horiz-adv-x="256" d="M117.5 243.167C99.536 237.752 85.058 224.535 78.295 207.377C75.699 200.791 75.569 199.584 75.209 178.849C74.908 161.485 75.145 155.983 76.407 151.056C79.81 137.772 87.781 126.047 98.948 117.9L105.77 112.922L104.879 108.955C100.972 91.57 91.595 79.65 77.731 74.446C55.44 66.08 46.013 60.847 37.93 52.353C27.976 41.893 23.679 31.826 21.941 14.896C21.05 6.21 21.125 4.458 22.475 2.397L24.046 0L132.589 0C205.498 0 241.766 0.34 243.066 1.035C247.418 3.364 244.589 25.77 238.273 39C231.457 53.277 216.997 64.239 194.258 72.364C179.482 77.643 173.129 82.652 167.274 93.638C163.384 100.936 160.095 113.198 161.869 113.79C162.535 114.012 165.649 116.249 168.79 118.761C180.66 128.256 187.721 139.346 190.591 153C192.978 164.355 192.125 196.014 189.19 205C183.902 221.193 169.888 235.563 153.379 241.72C144.084 245.188 126.548 245.895 117.5 243.167M143.131 233.56C159.875 230.011 174.053 217.142 179.105 200.909C181.875 192.01 181.875 159.99 179.105 151.091C172.249 129.06 149.637 114.856 126.5 118.044C113.076 119.895 98.569 129.528 91.792 141.092C86.503 150.118 85.498 155.783 85.517 176.5C85.532 193.774 85.743 196.083 87.834 201.917C93.672 218.207 106.746 229.907 123.063 233.445C131.397 235.252 135.047 235.273 143.131 233.56M133.5 107.5C139.55 107.5 145.89 107.857 147.59 108.294L150.679 109.088L152.502 102.353C155.254 92.187 160.53 82.532 166.876 76.046C172.903 69.886 178.715 66.487 190.282 62.356C201.106 58.49 214.418 51.329 219.838 46.456C227.542 39.529 233.936 24.972 233.985 14.25L234 11L132.988 11L31.976 11L32.577 15.25C33.726 23.385 36.05 31.321 38.719 36.224C44.419 46.697 57.321 55.496 77.864 62.921C82.464 64.583 88.187 67.091 90.581 68.495C100.848 74.512 109.477 86.753 113.993 101.708L116.169 108.916L119.335 108.208C121.076 107.819 127.45 107.5 133.5 107.5" />
    </font>
</defs>
</svg>
